  0
SECTION
  2
HEADER
  9
$ACADVER
  1
AC1014
  9
$ACADMAINTVER
 70
     9
  9
$DWGCODEPAGE
  3
ANSI_1250
  9
$INSBASE
 10
0.0
 20
0.0
 30
0.0
  9
$EXTMIN
 10
1168.321190999996
 20
-1633.911209
 30
0.0
  9
$EXTMAX
 10
2571.694505494505
 20
392.816879
 30
0.0
  9
$LIMMIN
 10
0.0
 20
0.0
  9
$LIMMAX
 10
0.0
 20
0.0
  9
$ORTHOMODE
 70
     0
  9
$REGENMODE
 70
     1
  9
$FILLMODE
 70
     1
  9
$QTEXTMODE
 70
     0
  9
$MIRRTEXT
 70
     1
  9
$DRAGMODE
 70
     2
  9
$LTSCALE
 40
1.0
  9
$OSMODE
 70
    37
  9
$ATTMODE
 70
     1
  9
$TEXTSIZE
 40
0.2
  9
$TRACEWID
 40
0.05
  9
$TEXTSTYLE
  7
ED40
  9
$CLAYER
  8
V0-VYPLNE
  9
$CELTYPE
  6
CONTINUOUS
  9
$CECOLOR
 62
    41
  9
$CELTSCALE
 40
1.0
  9
$DELOBJ
 70
     1
  9
$DISPSILH
 70
     0
  9
$DIMSCALE
 40
1.0
  9
$DIMASZ
 40
40.0
  9
$DIMEXO
 40
1.0
  9
$DIMDLI
 40
0.38
  9
$DIMRND
 40
0.0
  9
$DIMDLE
 40
0.0
  9
$DIMEXE
 40
1.25
  9
$DIMTP
 40
0.0
  9
$DIMTM
 40
0.0
  9
$DIMTXT
 40
40.0
  9
$DIMCEN
 40
0.09
  9
$DIMTSZ
 40
0.0
  9
$DIMTOL
 70
     0
  9
$DIMLIM
 70
     0
  9
$DIMTIH
 70
     0
  9
$DIMTOH
 70
     0
  9
$DIMSE1
 70
     0
  9
$DIMSE2
 70
     0
  9
$DIMTAD
 70
     1
  9
$DIMZIN
 70
     0
  9
$DIMBLK
  1
OPEN
  9
$DIMASO
 70
     1
  9
$DIMSHO
 70
     1
  9
$DIMPOST
  1

  9
$DIMAPOST
  1

  9
$DIMALT
 70
     0
  9
$DIMALTD
 70
     2
  9
$DIMALTF
 40
25.4
  9
$DIMLFAC
 40
1.0
  9
$DIMTOFL
 70
     1
  9
$DIMTVP
 40
0.0
  9
$DIMTIX
 70
     1
  9
$DIMSOXD
 70
     0
  9
$DIMSAH
 70
     0
  9
$DIMBLK1
  1

  9
$DIMBLK2
  1

  9
$DIMSTYLE
  2
ED40
  9
$DIMCLRD
 70
     0
  9
$DIMCLRE
 70
    41
  9
$DIMCLRT
 70
    41
  9
$DIMTFAC
 40
1.0
  9
$DIMGAP
 40
2.0
  9
$DIMJUST
 70
     0
  9
$DIMSD1
 70
     0
  9
$DIMSD2
 70
     0
  9
$DIMTOLJ
 70
     1
  9
$DIMTZIN
 70
     0
  9
$DIMALTZ
 70
     0
  9
$DIMALTTZ
 70
     0
  9
$DIMFIT
 70
     3
  9
$DIMUPT
 70
     1
  9
$DIMUNIT
 70
     2
  9
$DIMDEC
 70
     0
  9
$DIMTDEC
 70
     4
  9
$DIMALTU
 70
     2
  9
$DIMALTTD
 70
     2
  9
$DIMTXSTY
  7
ED40
  9
$DIMAUNIT
 70
     0
  9
$LUNITS
 70
     2
  9
$LUPREC
 70
     4
  9
$SKETCHINC
 40
0.1
  9
$FILLETRAD
 40
0.5
  9
$AUNITS
 70
     0
  9
$AUPREC
 70
     0
  9
$MENU
  1
.
  9
$ELEVATION
 40
0.0
  9
$PELEVATION
 40
0.0
  9
$THICKNESS
 40
0.0
  9
$LIMCHECK
 70
     0
  9
$BLIPMODE
 70
     0
  9
$CHAMFERA
 40
0.5
  9
$CHAMFERB
 40
0.5
  9
$CHAMFERC
 40
1.0
  9
$CHAMFERD
 40
0.0
  9
$SKPOLY
 70
     0
  9
$TDCREATE
 40
2455643.631925231
  9
$TDUPDATE
 40
2455643.631925243
  9
$TDINDWG
 40
0.0000000116
  9
$TDUSRTIMER
 40
0.0000000116
  9
$USRTIMER
 70
     1
  9
$ANGBASE
 50
0.0
  9
$ANGDIR
 70
     0
  9
$PDMODE
 70
    35
  9
$PDSIZE
 40
20.0
  9
$PLINEWID
 40
0.0
  9
$COORDS
 70
     1
  9
$SPLFRAME
 70
     0
  9
$SPLINETYPE
 70
     6
  9
$SPLINESEGS
 70
     8
  9
$ATTDIA
 70
     0
  9
$ATTREQ
 70
     1
  9
$HANDLING
 70
     1
  9
$HANDSEED
  5
5038
  9
$SURFTAB1
 70
     6
  9
$SURFTAB2
 70
     6
  9
$SURFTYPE
 70
     6
  9
$SURFU
 70
     6
  9
$SURFV
 70
     6
  9
$UCSNAME
  2

  9
$UCSORG
 10
0.0
 20
0.0
 30
0.0
  9
$UCSXDIR
 10
1.0
 20
0.0
 30
0.0
  9
$UCSYDIR
 10
0.0
 20
1.0
 30
0.0
  9
$PUCSNAME
  2

  9
$PUCSORG
 10
0.0
 20
0.0
 30
0.0
  9
$PUCSXDIR
 10
1.0
 20
0.0
 30
0.0
  9
$PUCSYDIR
 10
0.0
 20
1.0
 30
0.0
  9
$USERI1
 70
     0
  9
$USERI2
 70
     0
  9
$USERI3
 70
     0
  9
$USERI4
 70
     0
  9
$USERI5
 70
     0
  9
$USERR1
 40
0.0
  9
$USERR2
 40
0.0
  9
$USERR3
 40
0.0
  9
$USERR4
 40
0.0
  9
$USERR5
 40
0.0
  9
$WORLDVIEW
 70
     1
  9
$SHADEDGE
 70
     3
  9
$SHADEDIF
 70
    70
  9
$TILEMODE
 70
     1
  9
$MAXACTVP
 70
    64
  9
$PINSBASE
 10
0.0
 20
0.0
 30
0.0
  9
$PLIMCHECK
 70
     0
  9
$PEXTMIN
 10
1.000000000000000E+20
 20
1.000000000000000E+20
 30
1.000000000000000E+20
  9
$PEXTMAX
 10
-1.000000000000000E+20
 20
-1.000000000000000E+20
 30
-1.000000000000000E+20
  9
$PLIMMIN
 10
0.0
 20
0.0
  9
$PLIMMAX
 10
0.0
 20
0.0
  9
$UNITMODE
 70
     0
  9
$VISRETAIN
 70
     1
  9
$PLINEGEN
 70
     0
  9
$PSLTSCALE
 70
     1
  9
$TREEDEPTH
 70
  3020
  9
$PICKSTYLE
 70
     1
  9
$CMLSTYLE
  2
STANDARD
  9
$CMLJUST
 70
     0
  9
$CMLSCALE
 40
1.0
  9
$PROXYGRAPHICS
 70
     1
  9
$MEASUREMENT
 70
     0
  0
ENDSEC
  0
SECTION
  2
CLASSES
  0
CLASS
  1
ACDBDICTIONARYWDFLT
  2
AcDbDictionaryWithDefault
  3
ObjectDBX Classes
 90
        0
280
     0
281
     0
  0
CLASS
  1
XRECORD
  2
AcDbXrecord
  3
AutoCAD 2000
 90
        0
280
     0
281
     0
  0
CLASS
  1
LWPOLYLINE
  2
AcDbPolyline
  3
AutoCAD 2000
 90
        0
280
     0
281
     1
  0
CLASS
  1
HATCH
  2
AcDbHatch
  3
AutoCAD 2000
 90
        0
280
     0
281
     1
  0
CLASS
  1
ACDBPLACEHOLDER
  2
AcDbPlaceHolder
  3
ObjectDBX Classes
 90
        0
280
     0
281
     0
  0
CLASS
  1
LAYOUT
  2
AcDbLayout
  3
ObjectDBX Classes
 90
        0
280
     0
281
     0
  0
ENDSEC
  0
SECTION
  2
TABLES
  0
TABLE
  2
VPORT
  5
4F76
330
0
100
AcDbSymbolTable
 70
     2
  0
VPORT
  5
4F97
102
{ACAD_XDICTIONARY
360
5036
102
}
330
4F76
100
AcDbSymbolTableRecord
100
AcDbViewportTableRecord
  2
*ACTIVE
 70
     0
 10
0.0
 20
0.0
 11
1.0
 21
1.0
 12
1751.021392
 22
-503.189005
 13
0.0
 23
0.0
 14
10.0
 24
10.0
 15
10.0
 25
10.0
 16
0.0
 26
0.0
 36
1.0
 17
0.0
 27
0.0
 37
0.0
 40
2238.487295
 41
0.0079324804725563
 42
50.0
 43
0.0
 44
0.0
 50
0.0
 51
0.0000000000007958
 71
     0
 72
   100
 73
     1
 74
     3
 75
     0
 76
     0
 77
     0
 78
     0
  0
ENDTAB
  0
TABLE
  2
LTYPE
  5
4F73
330
0
100
AcDbSymbolTable
 70
    25
  0
LTYPE
  5
4F82
330
4F73
100
AcDbSymbolTableRecord
100
AcDbLinetypeTableRecord
  2
BYBLOCK
 70
     0
  3

 72
    65
 73
     0
 40
0.0
  0
LTYPE
  5
4F83
330
4F73
100
AcDbSymbolTableRecord
100
AcDbLinetypeTableRecord
  2
BYLAYER
 70
     0
  3

 72
    65
 73
     0
 40
0.0
  0
LTYPE
  5
4F84
330
4F73
100
AcDbSymbolTableRecord
100
AcDbLinetypeTableRecord
  2
CONTINUOUS
 70
     0
  3
Solid line
 72
    65
 73
     0
 40
0.0
  0
LTYPE
  5
4F9F
330
4F73
100
AcDbSymbolTableRecord
100
AcDbLinetypeTableRecord
  2
CENTER
 70
     0
  3
Center ____ _ ____ _ ____ _ ____ _ ____ _ ____
 72
    65
 73
     4
 40
2.0
 49
1.25
 74
     0
 49
-0.25
 74
     0
 49
0.25
 74
     0
 49
-0.25
 74
     0
  0
LTYPE
  5
4FA0
330
4F73
100
AcDbSymbolTableRecord
100
AcDbLinetypeTableRecord
  2
DASHDOT
 70
     0
  3
Dashdot __ . __ . __ . __ . __ . __ . __ . __
 72
    65
 73
     4
 40
1.0
 49
0.5
 74
     0
 49
-0.25
 74
     0
 49
0.0
 74
     0
 49
-0.25
 74
     0
  0
LTYPE
  5
4FA1
330
4F73
100
AcDbSymbolTableRecord
100
AcDbLinetypeTableRecord
  2
DASHED
 70
     0
  3
Dashed __ __ __ __ __ __ __ __ __ __ __ __ __ _
 72
    65
 73
     2
 40
0.75
 49
0.5
 74
     0
 49
-0.25
 74
     0
  0
LTYPE
  5
4FA2
330
4F73
100
AcDbSymbolTableRecord
100
AcDbLinetypeTableRecord
  2
HIDDEN
 70
     0
  3
Hidden __ __ __ __ __ __ __ __ __ __ __ __ __ __
 72
    65
 73
     2
 40
0.375
 49
0.25
 74
     0
 49
-0.125
 74
     0
  0
LTYPE
  5
4FA3
330
4F73
100
AcDbSymbolTableRecord
100
AcDbLinetypeTableRecord
  2
HIDDEN2
 70
     0
  3
Hidden2 _ _ _ _ _ _ _ _ _ _ _ _ _ _ _ _ _ 
 72
    65
 73
     2
 40
0.1875
 49
0.125
 74
     0
 49
-0.0625
 74
     0
  0
LTYPE
  5
4FA4
330
4F73
100
AcDbSymbolTableRecord
100
AcDbLinetypeTableRecord
  2
BORDER
 70
     0
  3
Border __ __ . __ __ . __ __ . __ __ . __ __ .
 72
    65
 73
     6
 40
1.75
 49
0.5
 74
     0
 49
-0.25
 74
     0
 49
0.5
 74
     0
 49
-0.25
 74
     0
 49
0.0
 74
     0
 49
-0.25
 74
     0
  0
LTYPE
  5
4FA5
330
4F73
100
AcDbSymbolTableRecord
100
AcDbLinetypeTableRecord
  2
BORDER2
 70
     0
  3
Border2 __.__.__.__.__.__.__.__.__.__.__.
 72
    65
 73
     6
 40
0.875
 49
0.25
 74
     0
 49
-0.125
 74
     0
 49
0.25
 74
     0
 49
-0.125
 74
     0
 49
0.0
 74
     0
 49
-0.125
 74
     0
  0
LTYPE
  5
4FA6
330
4F73
100
AcDbSymbolTableRecord
100
AcDbLinetypeTableRecord
  2
BORDERX2
 70
     0
  3
Borderx2  ____  ____  .  ____  ____  .  ___
 72
    65
 73
     6
 40
3.5
 49
1.0
 74
     0
 49
-0.5
 74
     0
 49
1.0
 74
     0
 49
-0.5
 74
     0
 49
0.0
 74
     0
 49
-0.5
 74
     0
  0
LTYPE
  5
4FA7
330
4F73
100
AcDbSymbolTableRecord
100
AcDbLinetypeTableRecord
  2
CENTER2
 70
     0
  3
Center2  ___ _ ___ _ ___ _ ___ _ ___ _ ___
 72
    65
 73
     4
 40
1.125
 49
0.75
 74
     0
 49
-0.125
 74
     0
 49
0.125
 74
     0
 49
-0.125
 74
     0
  0
LTYPE
  5
4FA8
330
4F73
100
AcDbSymbolTableRecord
100
AcDbLinetypeTableRecord
  2
CENTERX2
 70
     0
  3
Centerx2  ________  __  ________  __  _____
 72
    65
 73
     4
 40
4.0
 49
2.5
 74
     0
 49
-0.5
 74
     0
 49
0.5
 74
     0
 49
-0.5
 74
     0
  0
LTYPE
  5
4FA9
330
4F73
100
AcDbSymbolTableRecord
100
AcDbLinetypeTableRecord
  2
DASHDOT2
 70
     0
  3
Dashdot2  _._._._._._._._._._._._._._._.
 72
    65
 73
     4
 40
0.5
 49
0.25
 74
     0
 49
-0.125
 74
     0
 49
0.0
 74
     0
 49
-0.125
 74
     0
  0
LTYPE
  5
4FAA
330
4F73
100
AcDbSymbolTableRecord
100
AcDbLinetypeTableRecord
  2
DASHDOTX2
 70
     0
  3
Dashdotx2 ____  .  ____  .  ____  .  ___
 72
    65
 73
     4
 40
2.0
 49
1.0
 74
     0
 49
-0.5
 74
     0
 49
0.0
 74
     0
 49
-0.5
 74
     0
  0
LTYPE
  5
4FAB
330
4F73
100
AcDbSymbolTableRecord
100
AcDbLinetypeTableRecord
  2
DASHED2
 70
     0
  3
Dashed2 _ _ _ _ _ _ _ _ _ _ _ _ _ _ _ _ _ 
 72
    65
 73
     2
 40
0.375
 49
0.25
 74
     0
 49
-0.125
 74
     0
  0
LTYPE
  5
4FAC
330
4F73
100
AcDbSymbolTableRecord
100
AcDbLinetypeTableRecord
  2
DASHEDX2
 70
     0
  3
Dashedx2 ____  ____  ____  ____  ____  ___
 72
    65
 73
     2
 40
1.5
 49
1.0
 74
     0
 49
-0.5
 74
     0
  0
LTYPE
  5
4FAD
330
4F73
100
AcDbSymbolTableRecord
100
AcDbLinetypeTableRecord
  2
DIVIDE
 70
     0
  3
Divide ____ . . ____ . . ____ . . ____ . . ____
 72
    65
 73
     6
 40
1.25
 49
0.5
 74
     0
 49
-0.25
 74
     0
 49
0.0
 74
     0
 49
-0.25
 74
     0
 49
0.0
 74
     0
 49
-0.25
 74
     0
  0
LTYPE
  5
4FAE
330
4F73
100
AcDbSymbolTableRecord
100
AcDbLinetypeTableRecord
  2
DIVIDE2
 70
     0
  3
Divide2 __..__..__..__..__..__..__..__.._
 72
    65
 73
     6
 40
0.625
 49
0.25
 74
     0
 49
-0.125
 74
     0
 49
0.0
 74
     0
 49
-0.125
 74
     0
 49
0.0
 74
     0
 49
-0.125
 74
     0
  0
LTYPE
  5
4FAF
330
4F73
100
AcDbSymbolTableRecord
100
AcDbLinetypeTableRecord
  2
DIVIDEX2
 70
     0
  3
Dividex2 ________  .  .  ________  .  .  _
 72
    65
 73
     6
 40
2.5
 49
1.0
 74
     0
 49
-0.5
 74
     0
 49
0.0
 74
     0
 49
-0.5
 74
     0
 49
0.0
 74
     0
 49
-0.5
 74
     0
  0
LTYPE
  5
4FB0
330
4F73
100
AcDbSymbolTableRecord
100
AcDbLinetypeTableRecord
  2
DOT
 70
     0
  3
Dot . . . . . . . . . . . . . . . . . . . . . . . .
 72
    65
 73
     2
 40
0.25
 49
0.0
 74
     0
 49
-0.25
 74
     0
  0
LTYPE
  5
4FB1
330
4F73
100
AcDbSymbolTableRecord
100
AcDbLinetypeTableRecord
  2
DOT2
 70
     0
  3
Dot2 ........................................
 72
    65
 73
     2
 40
0.125
 49
0.0
 74
     0
 49
-0.125
 74
     0
  0
LTYPE
  5
4FB2
330
4F73
100
AcDbSymbolTableRecord
100
AcDbLinetypeTableRecord
  2
DOTX2
 70
     0
  3
Dotx2 .  .  .  .  .  .  .  .  .  .  .  .  .  .
 72
    65
 73
     2
 40
0.5
 49
0.0
 74
     0
 49
-0.5
 74
     0
  0
LTYPE
  5
4FB3
330
4F73
100
AcDbSymbolTableRecord
100
AcDbLinetypeTableRecord
  2
HIDDENX2
 70
     0
  3
Hiddenx2 ____ ____ ____ ____ ____ ____ ____ 
 72
    65
 73
     2
 40
0.75
 49
0.5
 74
     0
 49
-0.25
 74
     0
  0
LTYPE
  5
4FB4
330
4F73
100
AcDbSymbolTableRecord
100
AcDbLinetypeTableRecord
  2
PHANTOM
 70
     0
  3
Phantom ______  __  __  ______  __  __  ______ 
 72
    65
 73
     6
 40
2.5
 49
1.25
 74
     0
 49
-0.25
 74
     0
 49
0.25
 74
     0
 49
-0.25
 74
     0
 49
0.25
 74
     0
 49
-0.25
 74
     0
  0
LTYPE
  5
4FB5
330
4F73
100
AcDbSymbolTableRecord
100
AcDbLinetypeTableRecord
  2
PHANTOM2
 70
     0
  3
Phantom2 ___ _ _ ___ _ _ ___ _ _ ___ _ _
 72
    65
 73
     6
 40
1.25
 49
0.625
 74
     0
 49
-0.125
 74
     0
 49
0.125
 74
     0
 49
-0.125
 74
     0
 49
0.125
 74
     0
 49
-0.125
 74
     0
  0
LTYPE
  5
4FB6
330
4F73
100
AcDbSymbolTableRecord
100
AcDbLinetypeTableRecord
  2
PHANTOMX2
 70
     0
  3
Phantomx2 ____________    ____    ____   _
 72
    65
 73
     6
 40
5.0
 49
2.5
 74
     0
 49
-0.5
 74
     0
 49
0.5
 74
     0
 49
-0.5
 74
     0
 49
0.5
 74
     0
 49
-0.5
 74
     0
  0
ENDTAB
  0
TABLE
  2
LAYER
  5
4F70
330
0
100
AcDbSymbolTable
 70
     5
  0
LAYER
  5
4F7E
330
4F70
100
AcDbSymbolTableRecord
100
AcDbLayerTableRecord
  2
0
 70
     0
 62
     7
  6
CONTINUOUS
  0
LAYER
  5
9E
330
4F70
100
AcDbSymbolTableRecord
100
AcDbLayerTableRecord
  2
DEFPOINTS
 70
     0
 62
     7
  6
CONTINUOUS
  0
LAYER
  5
377
330
4F70
100
AcDbSymbolTableRecord
100
AcDbLayerTableRecord
  2
V0-OBRYS
 70
     0
 62
    90
  6
CONTINUOUS
  0
LAYER
  5
378
330
4F70
100
AcDbSymbolTableRecord
100
AcDbLayerTableRecord
  2
V0-VYPLNE
 70
     0
 62
    63
  6
DASHDOT
  0
LAYER
  5
1540
330
4F70
100
AcDbSymbolTableRecord
100
AcDbLayerTableRecord
  2
VO-OBRYS
 70
     0
 62
    90
  6
CONTINUOUS
  0
ENDTAB
  0
TABLE
  2
STYLE
  5
4F71
330
0
100
AcDbSymbolTable
 70
     6
  0
STYLE
  5
4F7F
330
4F71
100
AcDbSymbolTableRecord
100
AcDbTextStyleTableRecord
  2
STANDARD
 70
     0
 40
0.0
 41
1.0
 50
0.0
 71
     0
 42
0.2
  3
ISOCP.shx
  4

1001
ACAD
1000
ISOCP.shx
1071
        0
  0
STYLE
  5
331
330
4F71
100
AcDbSymbolTableRecord
100
AcDbTextStyleTableRecord
  2
ED20
 70
     0
 40
20.0
 41
1.0
 50
0.0
 71
     0
 42
0.2
  3
ISOCP.shx
  4

1001
ACAD
1000
ISOCP.shx
1071
        0
  0
STYLE
  5
648
330
4F71
100
AcDbSymbolTableRecord
100
AcDbTextStyleTableRecord
  2
ED10
 70
     0
 40
10.0
 41
1.0
 50
0.0
 71
     0
 42
0.2
  3
ISOCP.shx
  4

1001
ACAD
1000
ISOCP.shx
1071
        0
  0
STYLE
  5
F38
330
4F71
100
AcDbSymbolTableRecord
100
AcDbTextStyleTableRecord
  2
ED30
 70
     0
 40
30.0
 41
1.0
 50
0.0
 71
     0
 42
0.2
  3
ISOCP.shx
  4

1001
ACAD
1000
ISOCP.shx
1071
        0
  0
STYLE
  5
F39
330
4F71
100
AcDbSymbolTableRecord
100
AcDbTextStyleTableRecord
  2
ED40
 70
     0
 40
40.0
 41
1.0
 50
0.0
 71
     0
 42
0.2
  3
ISOCP.shx
  4

1001
ACAD
1000
ISOCP.shx
1071
        0
  0
STYLE
  5
1B9D
330
4F71
100
AcDbSymbolTableRecord
100
AcDbTextStyleTableRecord
  2
VD_RECOV_1_1B9D_
 70
     0
 40
0.0
 41
1.0
 50
0.0
 71
     0
 42
0.2
  3
ltypeshp.shx
  4

1001
ACAD
1000
ltypeshp.shx
1071
        0
  0
ENDTAB
  0
TABLE
  2
VIEW
  5
4F74
330
0
100
AcDbSymbolTable
 70
     0
  0
ENDTAB
  0
TABLE
  2
UCS
  5
4F75
330
0
100
AcDbSymbolTable
 70
     0
  0
ENDTAB
  0
TABLE
  2
APPID
  5
4F77
330
0
100
AcDbSymbolTable
 70
     7
  0
APPID
  5
4F80
330
4F77
100
AcDbSymbolTableRecord
100
AcDbRegAppTableRecord
  2
ACAD
 70
     0
  0
APPID
  5
4F98
330
4F77
100
AcDbSymbolTableRecord
100
AcDbRegAppTableRecord
  2
VD_INVISIBLE_NOT_FOR_READ
 70
     0
  0
APPID
  5
4F99
330
4F77
100
AcDbSymbolTableRecord
100
AcDbRegAppTableRecord
  2
VD_TEMPHATCH
 70
     0
  0
APPID
  5
4F9A
330
4F77
100
AcDbSymbolTableRecord
100
AcDbRegAppTableRecord
  2
VDEXTRAPARAM
 70
     0
  0
APPID
  5
4F9B
330
4F77
100
AcDbSymbolTableRecord
100
AcDbRegAppTableRecord
  2
PE_URL
 70
     0
  0
APPID
  5
4F9C
330
4F77
100
AcDbSymbolTableRecord
100
AcDbRegAppTableRecord
  2
VD_UNKNOWN
 70
     0
  0
APPID
  5
4FC5
330
4F77
100
AcDbSymbolTableRecord
100
AcDbRegAppTableRecord
  2
CONTENTBLOCKICON
 70
     0
  0
ENDTAB
  0
TABLE
  2
DIMSTYLE
  5
4F78
330
0
100
AcDbSymbolTable
 70
     4
  0
DIMSTYLE
105
4F95
330
4F78
100
AcDbSymbolTableRecord
100
AcDbDimStyleTableRecord
  2
STANDARD
 70
     0
  3

  4

  5
OPEN
  6

  7

 40
1.0
 41
15.0
 42
0.625
 43
0.38
 44
1.25
 45
0.0
 46
0.0
 47
0.0
 48
0.0
140
15.0
141
0.09
142
0.0
143
25.4
144
1.0
145
0.0
146
1.0
147
3.0
 71
     0
 72
     0
 73
     0
 74
     0
 75
     0
 76
     0
 77
     1
 78
     0
170
     0
171
     2
172
     1
173
     0
174
     1
175
     0
176
     0
177
     0
178
     0
270
     2
271
     0
272
     4
273
     2
274
     2
340
331
275
     0
280
     0
281
     0
282
     0
283
     1
284
     0
285
     0
286
     0
287
     3
288
     1
  0
DIMSTYLE
105
FE9
330
4F78
100
AcDbSymbolTableRecord
100
AcDbDimStyleTableRecord
  2
ED20
 70
     0
  3

  4

  5
OPEN
  6

  7

 40
1.0
 41
20.0
 42
1.0
 43
0.38
 44
1.25
 45
0.0
 46
0.0
 47
0.0
 48
0.0
140
20.0
141
0.09
142
0.0
143
25.4
144
1.0
145
0.0
146
1.0
147
2.0
 71
     0
 72
     0
 73
     0
 74
     0
 75
     0
 76
     0
 77
     1
 78
     0
170
     0
171
     2
172
     1
173
     0
174
     1
175
     0
176
     0
177
    41
178
    41
270
     2
271
     0
272
     4
273
     2
274
     2
340
331
275
     0
280
     0
281
     0
282
     0
283
     1
284
     0
285
     0
286
     0
287
     3
288
     1
  0
DIMSTYLE
105
320E
330
4F78
100
AcDbSymbolTableRecord
100
AcDbDimStyleTableRecord
  2
ED30
 70
     0
  3

  4

  5
OPEN
  6

  7

 40
1.0
 41
30.0
 42
1.0
 43
0.38
 44
1.25
 45
0.0
 46
0.0
 47
0.0
 48
0.0
140
30.0
141
0.09
142
0.0
143
25.4
144
1.0
145
0.0
146
1.0
147
2.0
 71
     0
 72
     0
 73
     0
 74
     0
 75
     0
 76
     0
 77
     1
 78
     0
170
     0
171
     2
172
     1
173
     0
174
     1
175
     0
176
     0
177
    41
178
    41
270
     2
271
     0
272
     4
273
     2
274
     2
340
F38
275
     0
280
     0
281
     0
282
     0
283
     1
284
     0
285
     0
286
     0
287
     3
288
     1
  0
DIMSTYLE
105
4105
102
{ACAD_REACTORS
330
3F41
330
409E
330
4880
330
4881
330
4E36
330
4E74
102
}
330
4F78
100
AcDbSymbolTableRecord
100
AcDbDimStyleTableRecord
  2
ED40
 70
     0
  3

  4

  5
OPEN
  6

  7

 40
1.0
 41
40.0
 42
1.0
 43
0.38
 44
1.25
 45
0.0
 46
0.0
 47
0.0
 48
0.0
140
40.0
141
0.09
142
0.0
143
25.4
144
1.0
145
0.0
146
1.0
147
2.0
 71
     0
 72
     0
 73
     0
 74
     0
 75
     0
 76
     0
 77
     1
 78
     0
170
     0
171
     2
172
     1
173
     0
174
     1
175
     0
176
     0
177
    41
178
    41
270
     2
271
     0
272
     4
273
     2
274
     2
340
F39
275
     0
280
     0
281
     0
282
     0
283
     1
284
     0
285
     0
286
     0
287
     3
288
     1
  0
ENDTAB
  0
TABLE
  2
BLOCK_RECORD
  5
4F6F
330
0
100
AcDbSymbolTable
 70
    14
  0
BLOCK_RECORD
  5
4F8D
330
4F6F
100
AcDbSymbolTableRecord
100
AcDbBlockTableRecord
  2
*MODEL_SPACE
  0
BLOCK_RECORD
  5
4F89
330
4F6F
100
AcDbSymbolTableRecord
100
AcDbBlockTableRecord
  2
*PAPER_SPACE
  0
BLOCK_RECORD
  5
90
330
4F6F
100
AcDbSymbolTableRecord
100
AcDbBlockTableRecord
  2
_OPEN
  0
BLOCK_RECORD
  5
267B
330
4F6F
100
AcDbSymbolTableRecord
100
AcDbBlockTableRecord
  2
ASVORK
1001
CONTENTBLOCKICON
1071
        0
1004
2800000020000000200000000100040000000000000200000000000000000000000000000000000000000000000080000080000000808000800000008000800080800000C0C0C000808080000000FF0000FF000000FFFF00FF000000FF00FF00FFFF0000FFFFFF00FFFFFFFAAAAAAAAAAAAAAAAAAFFFFFFF
1004
FFFFFFFAFFFFFAFFFFFFFFFFAFFFFFFFFFFFFFFAFFFFFAFFFFFFFFFFAFFFFFFFFFFFFFFAFFFFFAFFFFFFFFFFAFFFFFFFFFFFFFFAFFFFFAFFFFFFFFFFAFFFFFFFFFFFFFFAFFFFFAFFFFFFFFFFAFFFFFFFFFFFFFFAFFFFFAFFFFFFFFFFAFFFFFFFFFFFFFFAFFFFFAFFFFFFFFFFAFFFFFFFFFFFFFFAFFFFFAFF
1004
FFFFFFFFAFFFFFFFFFFFFFFAFFFFFAFFFFFFFFFFAFFFFFFFFFFFFFFAFFFFFAFFFFFFFFFFAFFFFFFFFFFFFFFAFFFFFAFFFFFFFFFFAFFFFFFFFFFFFFFAFFFFFAFFFFFFFFFFAFFFFFFFFFFFFFFAFFFFFAFFFFFFFFFFAFFFFFFFFFFFFFFAFFFFFAFFFFFFFFFFAFFFFFFFFFFFFFFAFFFFFAFFFFFFFFFFAFFFFFFF
1004
FFFFFFFAFFFFFAFFFFFFFFFFFFFFFFFFFFFFFFFAFFFFFAFFFFFFFFFFAFFFFFFFFFFFFFFAFFFFFAFFFFFFFFFFAFFFFFFFFFFFFFFAFFFFFAFFFFFFFFFFAFFFFFFFFFFFFFFAFFFFFAFFFFFFFFFFAFFFFFFFFFFFFFFAFFFFFAFFFFFFFFFFAFFFFFFFFFFFFFFAFFFFFAFFFFFFFFFFAFFFFFFFFFFFFFFAFFFFFAFF
1004
FFFFFFFFAFFFFFFFFFFFFFFAFFFFFAFFFFFFFFFFAFFFFFFFFFFFFFFAFFFFFAFFFFFFFFFFAFFFFFFFFFFFFFFAFFFFFAFFFFFFFFFFAFFFFFFFFFFFFFFAFFFFFAFFFFFFFFFFAFFFFFFFFFFFFFFAFFFFFAFFFFFFFFFFAFFFFFFFFFFFFFFAFFFFFAFFFFFFFFFFAFFFFFFFFFFFFFFAFFFFFAFFFFFFFFFFAFFFFFFF
1004
FFFFFFFAAAAAAAAAAAAAAAAAAFFFFFFF
  0
BLOCK_RECORD
  5
26B3
330
4F6F
100
AcDbSymbolTableRecord
100
AcDbBlockTableRecord
  2
ASVORKBOK
1001
CONTENTBLOCKICON
1071
        0
1004
2800000020000000200000000100040000000000000200000000000000000000000000000000000000000000000080000080000000808000800000008000800080800000C0C0C000808080000000FF0000FF000000FFFF00FF000000FF00FF00FFFF0000FFFFFF00FFFFFFFFFFFFFFFFFFFFFFFFFFFFFFFF
1004
FAAAAAAAAAAAAAAAAAAAAAAAAAAAAAAFFAFFFFFFFFFFFFFFFFFFFFFFFFFFFFFAAAFFFFFFFFFFFFFFFFFFFFFFFFFFFFAAAAAFAAFFFFFFFFFFFFFFFFFFFFAAAFFAFAFAAAFFFFFFFFFFFFFFFFFFFFAFAFFAFAFFAFFFFFFFFFFFFFFFFFFFFFFAFFFAFAFFFFFFFFFFFFFFFFFFFFFFFFFFFFFAFAFFFFFFFFFFFFFF
1004
FFFFFFFFFFFFFFFAFAFFFFFFFFFFFFFFFFFFFFFFFFFFFFFAFAFFFFFFFFFFFFFFFFFFFFFFFFFFFFFAFAFFFFFFFFFFFFFFFFFFFFFFFFFFFFFAFAFFFFFFFFFFFFFFFFFFFFFFFFFFFFFAFAFFFFFFFFFFFFFFFFFFFFFFFFFFFFFAFAFFFFFFFFFFFFFFFFFFFFFFFFFFFFFAFAFFFFFFFFFFFFFFFFFFFFFFFFFFFFFA
1004
FAFFFFFFFFFFFFFFBFFFFFFFFFFFFFFAFAFFFFFFFFFFFFFFFFFFFFFFFFFFFFFAFAFFFFFFFFFFFFFFFFFFFFFFFFFFFFFAFAFFFFFFFFFFFFFFFFFFFFFFFFFFFFFAFAFFFFFFFFFFFFFFFFFFFFFFFFFFFFFAFAFFFFFFFFFFFFFFFFFFFFFFFFFFFFFAFAFFFFFFFFFFFFFFFFFFFFFFFFFFFFFAFAFFFFFFFFFFFFFF
1004
FFFFFFFFFFFFFFFAFAFFFFFFFFFFFFFFFFFFFFFFFFFFFFFAFAFFFFFFFFFFFFFFFFFFFFFFFFFFFFFAFAFFAFFFFFFFFFFFFFFFFFFFFFFAFFFAFAFAAAFFFFFFFFFFFFFFFFFFFFAFAFFAFAFFAAFFFFFFFFFFFFFFFFFFFFAAAFFAFAFFFFFFFFFFFFFFFFFFFFFFFFFFFFFAFAFFFFFFFFFFFFFFFFFFFFFFFFFFFFFA
1004
FAAAAAAAAAAAAAAAAAAAAAAAAAAAAAAF
  0
BLOCK_RECORD
  5
4036
330
4F6F
100
AcDbSymbolTableRecord
100
AcDbBlockTableRecord
  2
VD_ANONYM_4036
  0
BLOCK_RECORD
  5
4835
330
4F6F
100
AcDbSymbolTableRecord
100
AcDbBlockTableRecord
  2
VD_ANONYM_4835
  0
BLOCK_RECORD
  5
4E9D
330
4F6F
100
AcDbSymbolTableRecord
100
AcDbBlockTableRecord
  2
VDDIM_DEFAULT
  0
BLOCK_RECORD
  5
4E9F
330
4F6F
100
AcDbSymbolTableRecord
100
AcDbBlockTableRecord
  2
VDDIM_NONE
  0
BLOCK_RECORD
  5
4FC7
330
4F6F
100
AcDbSymbolTableRecord
100
AcDbBlockTableRecord
  2
*D8
  0
BLOCK_RECORD
  5
4FD4
330
4F6F
100
AcDbSymbolTableRecord
100
AcDbBlockTableRecord
  2
*D9
  0
BLOCK_RECORD
  5
4FE1
330
4F6F
100
AcDbSymbolTableRecord
100
AcDbBlockTableRecord
  2
*D10
  0
BLOCK_RECORD
  5
4FEE
330
4F6F
100
AcDbSymbolTableRecord
100
AcDbBlockTableRecord
  2
*D11
  0
BLOCK_RECORD
  5
4FFB
330
4F6F
100
AcDbSymbolTableRecord
100
AcDbBlockTableRecord
  2
*D12
  0
BLOCK_RECORD
  5
5007
330
4F6F
100
AcDbSymbolTableRecord
100
AcDbBlockTableRecord
  2
*D13
  0
ENDTAB
  0
ENDSEC
  0
SECTION
  2
BLOCKS
  0
BLOCK
  5
4F8E
330
4F8D
100
AcDbEntity
  8
0
100
AcDbBlockBegin
  2
*MODEL_SPACE
 70
     0
 71
     0
 10
0.0
 20
0.0
 30
0.0
  3
*MODEL_SPACE
  1

  0
ENDBLK
  5
4F8F
330
4F8D
100
AcDbEntity
  8
0
100
AcDbBlockEnd
  0
BLOCK
  5
4F8A
330
4F89
100
AcDbEntity
 67
     1
  8
0
100
AcDbBlockBegin
  2
*PAPER_SPACE
 70
     0
 71
     0
 10
0.0
 20
0.0
 30
0.0
  3
*PAPER_SPACE
  1

  0
ENDBLK
  5
4F8B
330
4F89
100
AcDbEntity
 67
     1
  8
0
100
AcDbBlockEnd
  0
BLOCK
  5
4FB7
330
90
100
AcDbEntity
  8
0
100
AcDbBlockBegin
  2
_OPEN
 70
     0
 71
     0
 10
0.0
 20
0.0
 30
0.0
  3
_OPEN
  1

  0
LINE
  5
92
330
90
100
AcDbEntity
  8
0
  6
BYBLOCK
 62
     0
100
AcDbLine
 10
-1.0
 20
0.166667
 30
0.0
 11
0.0
 21
0.0
 31
0.0
  0
LINE
  5
93
330
90
100
AcDbEntity
  8
0
  6
BYBLOCK
 62
     0
100
AcDbLine
 10
0.0
 20
0.0
 30
0.0
 11
-1.0
 21
-0.166667
 31
0.0
  0
LINE
  5
94
330
90
100
AcDbEntity
  8
0
  6
BYBLOCK
 62
     0
100
AcDbLine
 10
0.0
 20
0.0
 30
0.0
 11
-1.0
 21
0.0
 31
0.0
  0
ENDBLK
  5
4FB8
330
90
100
AcDbEntity
  8
0
100
AcDbBlockEnd
  0
BLOCK
  5
4FB9
330
267B
100
AcDbEntity
  8
0
100
AcDbBlockBegin
  2
ASVORK
 70
     0
 71
     0
 10
0.0
 20
0.0
 30
0.0
  3
ASVORK
  1

  0
LINE
  5
32CF
330
267B
100
AcDbEntity
  8
V0-OBRYS
  6
CONTINUOUS
 62
    90
100
AcDbLine
 10
-44.999998
 20
-40.000011
 30
0.0
 11
0.0000020000000021
 21
-40.000011
 31
0.0
  0
LINE
  5
32D0
330
267B
100
AcDbEntity
  8
V0-OBRYS
  6
CONTINUOUS
 62
    90
100
AcDbLine
 10
-44.999998
 20
39.999989
 30
0.0
 11
0.0000020000000021
 21
39.999989
 31
0.0
  0
LINE
  5
32D1
330
267B
100
AcDbEntity
  8
V0-OBRYS
  6
CONTINUOUS
 62
    90
100
AcDbLine
 10
-44.999998
 20
-0.000011
 30
0.0
 11
-44.999998
 21
-40.000011
 31
0.0
  0
LINE
  5
32D2
330
267B
100
AcDbEntity
  8
V0-OBRYS
  6
CONTINUOUS
 62
    90
100
AcDbLine
 10
-29.999998
 20
-0.000011
 30
0.0
 11
-29.999998
 21
-40.000011
 31
0.0
  0
LINE
  5
32D3
330
267B
100
AcDbEntity
  8
V0-OBRYS
  6
CONTINUOUS
 62
    90
100
AcDbLine
 10
-44.999998
 20
-0.000011
 30
0.0
 11
-44.999998
 21
39.999989
 31
0.0
  0
LINE
  5
32D4
330
267B
100
AcDbEntity
  8
V0-OBRYS
  6
CONTINUOUS
 62
    90
100
AcDbLine
 10
-29.999998
 20
-0.000011
 30
0.0
 11
-29.999998
 21
39.999989
 31
0.0
  0
LINE
  5
32D5
330
267B
100
AcDbEntity
  8
V0-OBRYS
  6
CONTINUOUS
 62
    90
100
AcDbLine
 10
0.000002
 20
-40.000011
 30
0.0
 11
0.000002
 21
-0.0000110000000006
 31
0.0
  0
LINE
  5
32D6
330
267B
100
AcDbEntity
  8
V0-OBRYS
  6
CONTINUOUS
 62
    90
100
AcDbLine
 10
0.000002
 20
39.999989
 30
0.0
 11
0.000002
 21
-0.0000110000000006
 31
0.0
  0
ENDBLK
  5
4FBA
330
267B
100
AcDbEntity
  8
0
100
AcDbBlockEnd
  0
BLOCK
  5
4FBB
330
26B3
100
AcDbEntity
  8
0
100
AcDbBlockBegin
  2
ASVORKBOK
 70
     0
 71
     0
 10
0.0
 20
0.0
 30
0.0
  3
ASVORKBOK
  1

  0
POINT
  5
26B5
330
26B3
100
AcDbEntity
  8
V0-VYPLNE
  6
DASHED
 62
    52
100
AcDbPoint
 10
0.0
 20
0.0
 30
0.0
  0
LINE
  5
26B6
330
26B3
100
AcDbEntity
  8
V0-OBRYS
  6
CONTINUOUS
 62
    90
100
AcDbLine
 10
36.1584
 20
40.176
 30
0.0
 11
-36.1584
 21
40.176
 31
0.0
  0
LINE
  5
26B7
330
26B3
100
AcDbEntity
  8
V0-OBRYS
  6
CONTINUOUS
 62
    90
100
AcDbLine
 10
-36.1584
 20
-40.176
 30
0.0
 11
36.1584
 21
-40.176
 31
0.0
  0
LINE
  5
26B8
330
26B3
100
AcDbEntity
  8
V0-OBRYS
  6
CONTINUOUS
 62
    90
100
AcDbLine
 10
-40.176
 20
36.1584
 30
0.0
 11
-40.176
 21
-36.1584
 31
0.0
  0
CIRCLE
  5
26B9
330
26B3
100
AcDbEntity
  8
V0-OBRYS
  6
CONTINUOUS
 62
    90
100
AcDbCircle
 10
-30.132
 20
-30.132
 30
0.0
 40
2.6784
  0
LINE
  5
26BA
330
26B3
100
AcDbEntity
  8
V0-OBRYS
  6
CONTINUOUS
 62
    90
100
AcDbLine
 10
-41.176195
 20
-33.63873
 30
0.0
 11
-34.765679
 21
-32.743337
 31
0.0
  0
LINE
  5
26BB
330
26B3
100
AcDbEntity
  8
V0-OBRYS
  6
CONTINUOUS
 62
    90
100
AcDbLine
 10
-41.957903
 20
-32.6585
 30
0.0
 11
-39.658484
 21
-26.607953
 31
0.0
  0
ARC
  5
26BC
330
26B3
100
AcDbEntity
  8
V0-OBRYS
  6
CONTINUOUS
 62
    90
100
AcDbCircle
 10
-36.1584
 20
-36.1584
 30
0.0
 40
4.0176
100
AcDbArc
 50
180.0
 51
270.0
  0
CIRCLE
  5
26BD
330
26B3
100
AcDbEntity
  8
V0-OBRYS
  6
CONTINUOUS
 62
    90
100
AcDbCircle
 10
-30.132
 20
30.132
 30
0.0
 40
2.6784
  0
ARC
  5
26BE
330
26B3
100
AcDbEntity
  8
V0-OBRYS
  6
CONTINUOUS
 62
    90
100
AcDbCircle
 10
-36.1584
 20
36.1584
 30
0.0
 40
4.0176
100
AcDbArc
 50
90.0
 51
180.0
  0
LINE
  5
26BF
330
26B3
100
AcDbEntity
  8
V0-OBRYS
  6
CONTINUOUS
 62
    90
100
AcDbLine
 10
40.176
 20
-36.1584
 30
0.0
 11
40.176
 21
36.1584
 31
0.0
  0
LINE
  5
26C0
330
26B3
100
AcDbEntity
  8
V0-OBRYS
  6
CONTINUOUS
 62
    90
100
AcDbLine
 10
41.176195
 20
-33.63873
 30
0.0
 11
34.765679
 21
-32.743337
 31
0.0
  0
ARC
  5
26C1
330
26B3
100
AcDbEntity
  8
V0-OBRYS
  6
CONTINUOUS
 62
    90
100
AcDbCircle
 10
36.1584
 20
-36.1584
 30
0.0
 40
4.0176
100
AcDbArc
 50
270.0
 51
0.0
  0
CIRCLE
  5
26C2
330
26B3
100
AcDbEntity
  8
V0-OBRYS
  6
CONTINUOUS
 62
    90
100
AcDbCircle
 10
30.132
 20
-30.132
 30
0.0
 40
2.6784
  0
CIRCLE
  5
26C3
330
26B3
100
AcDbEntity
  8
V0-OBRYS
  6
CONTINUOUS
 62
    90
100
AcDbCircle
 10
30.132
 20
30.132
 30
0.0
 40
2.6784
  0
ARC
  5
26C4
330
26B3
100
AcDbEntity
  8
V0-OBRYS
  6
CONTINUOUS
 62
    90
100
AcDbCircle
 10
36.1584
 20
36.1584
 30
0.0
 40
4.0176
100
AcDbArc
 50
0.0
 51
90.0
  0
ENDBLK
  5
4FBC
330
26B3
100
AcDbEntity
  8
0
100
AcDbBlockEnd
  0
BLOCK
  5
4FBD
330
4036
100
AcDbEntity
  8
0
100
AcDbBlockBegin
  2
VD_ANONYM_4036
 70
     0
 71
     0
 10
0.0
 20
0.0
 30
0.0
  3
VD_ANONYM_4036
  1

  0
LINE
  5
47C1
330
4036
100
AcDbEntity
  8
0
  6
BYBLOCK
 62
    41
100
AcDbLine
 10
1155.51027
 20
78.999813
 30
0.0
 11
1012.571833
 21
78.999813
 31
0.0
  0
LINE
  5
47C2
330
4036
100
AcDbEntity
  8
0
  6
BYBLOCK
 62
    41
100
AcDbLine
 10
1155.51027
 20
-101.001627
 30
0.0
 11
1012.571833
 21
-101.001627
 31
0.0
  0
LINE
  5
47C3
330
4036
100
AcDbEntity
  8
0
  6
BYBLOCK
 62
    41
100
AcDbLine
 10
1013.821833
 20
38.999813
 30
0.0
 11
1013.821833
 21
-61.001627
 31
0.0
  0
INSERT
  5
47C4
330
4036
100
AcDbEntity
  8
0
  6
BYBLOCK
 62
    41
100
AcDbBlockReference
  2
_OPEN
 10
1013.821833
 20
78.999813
 30
0.0
 41
40.0
 42
40.0
 43
40.0
 50
90.0
  0
INSERT
  5
47C5
330
4036
100
AcDbEntity
  8
0
  6
BYBLOCK
 62
    41
100
AcDbBlockReference
  2
_OPEN
 10
1013.821833
 20
-101.001627
 30
0.0
 41
40.0
 42
40.0
 43
40.0
 50
270.0
  0
POINT
  5
47C7
330
4036
100
AcDbEntity
  8
DEFPOINTS
  6
BYBLOCK
 62
     0
100
AcDbPoint
 10
1156.51027
 20
78.999813
 30
0.0
  0
POINT
  5
47C8
330
4036
100
AcDbEntity
  8
DEFPOINTS
  6
BYBLOCK
 62
     0
100
AcDbPoint
 10
1156.51027
 20
-101.001627
 30
0.0
  0
POINT
  5
47C9
330
4036
100
AcDbEntity
  8
DEFPOINTS
  6
BYBLOCK
 62
     0
100
AcDbPoint
 10
1013.821833
 20
-101.001627
 30
0.0
  0
TEXT
  5
4E9A
330
4036
100
AcDbEntity
  8
0
  6
BYBLOCK
 62
    41
100
AcDbText
 10
1011.821833
 20
-86.23900223809517
 30
0.0
 40
40.0
  1
Ř180
 50
90.0
  7
ED40
100
AcDbText
  0
ENDBLK
  5
4FBE
330
4036
100
AcDbEntity
  8
0
100
AcDbBlockEnd
  0
BLOCK
  5
4FBF
330
4835
100
AcDbEntity
  8
0
100
AcDbBlockBegin
  2
VD_ANONYM_4835
 70
     0
 71
     0
 10
0.0
 20
0.0
 30
0.0
  3
VD_ANONYM_4835
  1

  0
LINE
  5
4E5E
330
4835
100
AcDbEntity
  8
0
  6
BYBLOCK
 62
    41
100
AcDbLine
 10
1369.902694
 20
-12.001013
 30
0.0
 11
1369.902694
 21
-593.123435
 31
0.0
  0
LINE
  5
4E5F
330
4835
100
AcDbEntity
  8
0
  6
BYBLOCK
 62
    41
100
AcDbLine
 10
1180.51003
 20
-12.000907
 30
0.0
 11
1180.51003
 21
-593.123435
 31
0.0
  0
LINE
  5
4E60
330
4835
100
AcDbEntity
  8
0
  6
BYBLOCK
 62
    41
100
AcDbLine
 10
1329.902694
 20
-591.873435
 30
0.0
 11
1220.51003
 21
-591.873435
 31
0.0
  0
INSERT
  5
4E61
330
4835
100
AcDbEntity
  8
0
  6
BYBLOCK
 62
    41
100
AcDbBlockReference
  2
_OPEN
 10
1369.902694
 20
-591.873435
 30
0.0
 41
40.0
 42
40.0
 43
40.0
  0
INSERT
  5
4E62
330
4835
100
AcDbEntity
  8
0
  6
BYBLOCK
 62
    41
100
AcDbBlockReference
  2
_OPEN
 10
1180.51003
 20
-591.873435
 30
0.0
 41
40.0
 42
40.0
 43
40.0
 50
180.0
  0
POINT
  5
4E64
330
4835
100
AcDbEntity
  8
DEFPOINTS
  6
BYBLOCK
 62
     0
100
AcDbPoint
 10
1369.902694
 20
-11.001013
 30
0.0
  0
POINT
  5
4E65
330
4835
100
AcDbEntity
  8
DEFPOINTS
  6
BYBLOCK
 62
     0
100
AcDbPoint
 10
1180.51003
 20
-11.000907
 30
0.0
  0
POINT
  5
4E66
330
4835
100
AcDbEntity
  8
DEFPOINTS
  6
BYBLOCK
 62
     0
100
AcDbPoint
 10
1180.51003
 20
-591.873435
 30
0.0
  0
TEXT
  5
4E9B
330
4835
100
AcDbEntity
  8
0
  6
BYBLOCK
 62
    41
100
AcDbText
 10
1216.158742952381
 20
-589.873435
 30
0.0
 40
40.0
  1
189
  7
ED40
100
AcDbText
  0
ENDBLK
  5
4FC0
330
4835
100
AcDbEntity
  8
0
100
AcDbBlockEnd
  0
BLOCK
  5
4FC1
330
4E9D
100
AcDbEntity
  8
0
100
AcDbBlockBegin
  2
VDDIM_DEFAULT
 70
     0
 71
     0
 10
0.0
 20
0.0
 30
0.0
  3
VDDIM_DEFAULT
  1

  0
LWPOLYLINE
  5
4E9E
330
4E9D
100
AcDbEntity
  8
0
  6
CONTINUOUS
 62
     0
100
AcDbPolyline
 90
        4
 70
     0
 43
0.0
 10
0.0
 20
0.0
 10
-1.0
 20
-0.1665
 10
-1.0
 20
0.1665
 10
0.0
 20
0.0
1001
VDEXTRAPARAM
1071
        1
1071
        0
1071
        0
1040
1.0
1000

1000

1040
0.0
1040
0.0
  0
HATCH
  5
4FC6
330
4E9D
100
AcDbEntity
  8
0
  6
CONTINUOUS
 62
     0
100
AcDbHatch
 10
0.0
 20
0.0
 30
0.0
210
0.0
220
0.0
230
1.0
  2
SOLID
 70
     1
 71
     0
 91
        1
 92
        2
 72
     0
 73
     1
 93
        3
 10
0.0
 20
0.0
 10
-1.0
 20
-0.1665
 10
-1.0
 20
0.1665
 97
        0
 75
     0
 76
     1
 98
        1
 10
0.0
 20
0.0
1001
VDEXTRAPARAM
1071
        1
1071
        0
1071
        0
1040
1.0
1000

1000

1040
0.0
1040
0.0
1001
VD_TEMPHATCH
1000
VD_TEMPHATCH
  0
ENDBLK
  5
4FC2
330
4E9D
100
AcDbEntity
  8
0
100
AcDbBlockEnd
  0
BLOCK
  5
4FC3
330
4E9F
100
AcDbEntity
  8
0
100
AcDbBlockBegin
  2
VDDIM_NONE
 70
     0
 71
     0
 10
0.0
 20
0.0
 30
0.0
  3
VDDIM_NONE
  1

  0
ENDBLK
  5
4FC4
330
4E9F
100
AcDbEntity
  8
0
100
AcDbBlockEnd
  0
BLOCK
  5
4FD2
330
4FC7
100
AcDbEntity
  8
0
100
AcDbBlockBegin
  2
*D8
 70
     1
 71
     0
 10
0.0
 20
0.0
 30
0.0
  3
*D8
  1

  0
LINE
  5
4FC8
330
4FC7
100
AcDbEntity
  8
V0-VYPLNE
 62
    41
100
AcDbLine
 10
1351.878441
 20
303.998643
 30
0.0
 11
1456.487179000047
 21
303.998643
 31
0.0
  0
LINE
  5
4FC9
330
4FC7
100
AcDbEntity
  8
V0-VYPLNE
 62
    41
100
AcDbLine
 10
1351.878441
 20
-326.000457
 30
0.0
 11
1456.487179000047
 21
-326.000457
 31
0.0
  0
LINE
  5
4FCA
330
4FC7
100
AcDbEntity
  8
V0-VYPLNE
 62
     0
100
AcDbLine
 10
1455.237179000047
 20
263.9986430000001
 30
0.0
 11
1455.237179000047
 21
59.57052157142869
 31
0.0
  0
LINE
  5
4FCB
330
4FC7
100
AcDbEntity
  8
V0-VYPLNE
 62
     0
100
AcDbLine
 10
1455.237179000047
 20
-286.0004569999999
 30
0.0
 11
1455.237179000047
 21
-81.57233557142865
 31
0.0
  0
INSERT
  5
4FCC
330
4FC7
100
AcDbEntity
  8
V0-VYPLNE
 62
     0
100
AcDbBlockReference
  2
_OPEN
 10
1455.237179000047
 20
303.9986430000001
 30
0.0
 41
40.0
 42
40.0
 43
40.0
 50
90.0
  0
INSERT
  5
4FCD
330
4FC7
100
AcDbEntity
  8
V0-VYPLNE
 62
     0
100
AcDbBlockReference
  2
_OPEN
 10
1455.237179000047
 20
-326.0004569999999
 30
0.0
 41
40.0
 42
40.0
 43
40.0
 50
270.0
  0
MTEXT
  5
4FCE
330
4FC7
100
AcDbEntity
  8
V0-VYPLNE
 62
    41
100
AcDbMText
 10
1455.237179
 20
-11.000907
 30
0.0
 40
40.0
 41
0.0
 71
     5
 72
     1
  1
%%c\A1;630
  7
ED40
 11
0.0
 21
1.0
 31
0.0
  0
POINT
  5
4FCF
330
4FC7
100
AcDbEntity
  8
DEFPOINTS
 62
     0
100
AcDbPoint
 10
1350.878441
 20
303.998643
 30
0.0
  0
POINT
  5
4FD0
330
4FC7
100
AcDbEntity
  8
DEFPOINTS
 62
     0
100
AcDbPoint
 10
1350.878441
 20
-326.000457
 30
0.0
  0
POINT
  5
4FD1
330
4FC7
100
AcDbEntity
  8
DEFPOINTS
 62
     0
100
AcDbPoint
 10
1455.237179000047
 20
-326.000457
 30
0.0
  0
ENDBLK
  5
4FD3
330
4FC7
100
AcDbEntity
  8
0
100
AcDbBlockEnd
  0
BLOCK
  5
4FDF
330
4FD4
100
AcDbEntity
  8
0
100
AcDbBlockBegin
  2
*D9
 70
     1
 71
     0
 10
0.0
 20
0.0
 30
0.0
  3
*D9
  1

  0
LINE
  5
4FD5
330
4FD4
100
AcDbEntity
  8
V0-OBRYS
 62
    41
100
AcDbLine
 10
1248.321191
 20
-412.000907
 30
0.0
 11
1248.321191
 21
-520.1138620000631
 31
0.0
  0
LINE
  5
4FD6
330
4FD4
100
AcDbEntity
  8
V0-OBRYS
 62
    41
100
AcDbLine
 10
1350.878441
 20
-327.000457
 30
0.0
 11
1350.878441
 21
-520.1138620000631
 31
0.0
  0
LINE
  5
4FD7
330
4FD4
100
AcDbEntity
  8
V0-OBRYS
 62
     0
100
AcDbLine
 10
1208.321191
 20
-518.8638620000631
 30
0.0
 11
1248.220376428571
 21
-518.8638620000631
 31
0.0
  0
LINE
  5
4FD8
330
4FD4
100
AcDbEntity
  8
V0-OBRYS
 62
     0
100
AcDbLine
 10
1310.878441
 20
-518.8638620000631
 30
0.0
 11
1349.363233571429
 21
-518.8638620000631
 31
0.0
  0
INSERT
  5
4FD9
330
4FD4
100
AcDbEntity
  8
V0-OBRYS
 62
     0
100
AcDbBlockReference
  2
_OPEN
 10
1248.321191
 20
-518.8638620000631
 30
0.0
 41
40.0
 42
40.0
 43
40.0
  0
INSERT
  5
4FDA
330
4FD4
100
AcDbEntity
  8
V0-OBRYS
 62
     0
100
AcDbBlockReference
  2
_OPEN
 10
1350.878441
 20
-518.8638620000631
 30
0.0
 41
40.0
 42
40.0
 43
40.0
 50
180.0
  0
MTEXT
  5
4FDB
330
4FD4
100
AcDbEntity
  8
V0-OBRYS
 62
    41
100
AcDbMText
 10
1298.791805
 20
-518.863862
 30
0.0
 40
40.0
 41
0.0
 71
     5
 72
     1
  1
\A1;103
  7
ED40
  0
POINT
  5
4FDC
330
4FD4
100
AcDbEntity
  8
DEFPOINTS
 62
     0
100
AcDbPoint
 10
1248.321191
 20
-411.000907
 30
0.0
  0
POINT
  5
4FDD
330
4FD4
100
AcDbEntity
  8
DEFPOINTS
 62
     0
100
AcDbPoint
 10
1350.878441
 20
-326.000457
 30
0.0
  0
POINT
  5
4FDE
330
4FD4
100
AcDbEntity
  8
DEFPOINTS
 62
     0
100
AcDbPoint
 10
1350.878441
 20
-518.8638620000631
 30
0.0
  0
ENDBLK
  5
4FE0
330
4FD4
100
AcDbEntity
  8
0
100
AcDbBlockEnd
  0
BLOCK
  5
4FEC
330
4FE1
100
AcDbEntity
  8
0
100
AcDbBlockBegin
  2
*D10
 70
     1
 71
     0
 10
0.0
 20
0.0
 30
0.0
  3
*D10
  1

  0
LINE
  5
4FE2
330
4FE1
100
AcDbEntity
  8
V0-VYPLNE
 62
    41
100
AcDbLine
 10
1634.831302
 20
-398.991569
 30
0.0
 11
1634.831302
 21
-647.8806109998841
 31
0.0
  0
LINE
  5
4FE3
330
4FE1
100
AcDbEntity
  8
V0-VYPLNE
 62
    41
100
AcDbLine
 10
2434.77303
 20
-398.991569
 30
0.0
 11
2434.77303
 21
-647.8806109998841
 31
0.0
  0
LINE
  5
4FE4
330
4FE1
100
AcDbEntity
  8
V0-VYPLNE
 62
     0
100
AcDbLine
 10
1674.831302
 20
-646.6306109998841
 30
0.0
 11
1976.055474571429
 21
-646.6306109998841
 31
0.0
  0
LINE
  5
4FE5
330
4FE1
100
AcDbEntity
  8
V0-VYPLNE
 62
     0
100
AcDbLine
 10
2394.77303
 20
-646.6306109998841
 30
0.0
 11
2082.912617428572
 21
-646.6306109998841
 31
0.0
  0
INSERT
  5
4FE6
330
4FE1
100
AcDbEntity
  8
V0-VYPLNE
 62
     0
100
AcDbBlockReference
  2
_OPEN
 10
1634.831302
 20
-646.6306109998841
 30
0.0
 41
40.0
 42
40.0
 43
40.0
 50
180.0
  0
INSERT
  5
4FE7
330
4FE1
100
AcDbEntity
  8
V0-VYPLNE
 62
     0
100
AcDbBlockReference
  2
_OPEN
 10
2434.77303
 20
-646.6306109998841
 30
0.0
 41
40.0
 42
40.0
 43
40.0
  0
MTEXT
  5
4FE8
330
4FE1
100
AcDbEntity
  8
V0-VYPLNE
 62
    41
100
AcDbMText
 10
2029.484046
 20
-646.630611
 30
0.0
 40
40.0
 41
0.0
 71
     5
 72
     1
  1
\A1;800
  7
ED40
  0
POINT
  5
4FE9
330
4FE1
100
AcDbEntity
  8
DEFPOINTS
 62
     0
100
AcDbPoint
 10
1634.831302
 20
-397.991569
 30
0.0
  0
POINT
  5
4FEA
330
4FE1
100
AcDbEntity
  8
DEFPOINTS
 62
     0
100
AcDbPoint
 10
2434.77303
 20
-397.991569
 30
0.0
  0
POINT
  5
4FEB
330
4FE1
100
AcDbEntity
  8
DEFPOINTS
 62
     0
100
AcDbPoint
 10
2434.77303
 20
-646.6306109998841
 30
0.0
  0
ENDBLK
  5
4FED
330
4FE1
100
AcDbEntity
  8
0
100
AcDbBlockEnd
  0
BLOCK
  5
4FF9
330
4FEE
100
AcDbEntity
  8
0
100
AcDbBlockBegin
  2
*D11
 70
     1
 71
     0
 10
0.0
 20
0.0
 30
0.0
  3
*D11
  1

  0
LINE
  5
4FEF
330
4FEE
100
AcDbEntity
  8
V0-OBRYS
 62
    41
100
AcDbLine
 10
1679.552248
 20
-402.903842
 30
0.0
 11
1679.552248
 21
-560.2691260001157
 31
0.0
  0
LINE
  5
4FF0
330
4FEE
100
AcDbEntity
  8
V0-OBRYS
 62
    41
100
AcDbLine
 10
2389.552024
 20
-402.903902
 30
0.0
 11
2389.552024
 21
-560.2691260001157
 31
0.0
  0
LINE
  5
4FF1
330
4FEE
100
AcDbEntity
  8
V0-OBRYS
 62
     0
100
AcDbLine
 10
1719.552248
 20
-559.0191260001157
 30
0.0
 11
1968.748551571428
 21
-559.0191260001157
 31
0.0
  0
LINE
  5
4FF2
330
4FEE
100
AcDbEntity
  8
V0-OBRYS
 62
     0
100
AcDbLine
 10
2349.552024
 20
-559.0191260001157
 30
0.0
 11
2075.605694428572
 21
-559.0191260001157
 31
0.0
  0
INSERT
  5
4FF3
330
4FEE
100
AcDbEntity
  8
V0-OBRYS
 62
     0
100
AcDbBlockReference
  2
_OPEN
 10
1679.552248
 20
-559.0191260001157
 30
0.0
 41
40.0
 42
40.0
 43
40.0
 50
180.0
  0
INSERT
  5
4FF4
330
4FEE
100
AcDbEntity
  8
V0-OBRYS
 62
     0
100
AcDbBlockReference
  2
_OPEN
 10
2389.552024
 20
-559.0191260001157
 30
0.0
 41
40.0
 42
40.0
 43
40.0
  0
MTEXT
  5
4FF5
330
4FEE
100
AcDbEntity
  8
V0-OBRYS
 62
    41
100
AcDbMText
 10
2022.177123
 20
-559.019126
 30
0.0
 40
40.0
 41
0.0
 71
     5
 72
     1
  1
\A1;710
  7
ED40
  0
POINT
  5
4FF6
330
4FEE
100
AcDbEntity
  8
DEFPOINTS
 62
     0
100
AcDbPoint
 10
1679.552248
 20
-401.903842
 30
0.0
  0
POINT
  5
4FF7
330
4FEE
100
AcDbEntity
  8
DEFPOINTS
 62
     0
100
AcDbPoint
 10
2389.552024
 20
-401.903902
 30
0.0
  0
POINT
  5
4FF8
330
4FEE
100
AcDbEntity
  8
DEFPOINTS
 62
     0
100
AcDbPoint
 10
2389.552024
 20
-559.0191260001157
 30
0.0
  0
ENDBLK
  5
4FFA
330
4FEE
100
AcDbEntity
  8
0
100
AcDbBlockEnd
  0
BLOCK
  5
5005
330
4FFB
100
AcDbEntity
  8
0
100
AcDbBlockBegin
  2
*D12
 70
     1
 71
     0
 10
0.0
 20
0.0
 30
0.0
  3
*D12
  1

  0
LINE
  5
4FFC
330
4FFB
100
AcDbEntity
  8
V0-VYPLNE
 62
    41
100
AcDbLine
 10
1248.980991
 20
339.431643
 30
0.0
 11
1533.517002000008
 21
339.431643
 31
0.0
  0
LINE
  5
4FFD
330
4FFB
100
AcDbEntity
  8
V0-VYPLNE
 62
    41
100
AcDbLine
 10
1248.980991
 20
-361.433457
 30
0.0
 11
1533.517002000008
 21
-361.433457
 31
0.0
  0
LINE
  5
4FFE
330
4FFB
100
AcDbEntity
  8
V0-VYPLNE
 62
     0
100
AcDbLine
 10
1532.267002000008
 20
299.4316430000001
 30
0.0
 11
1532.267002000008
 21
-321.4334569999999
 31
0.0
  0
INSERT
  5
4FFF
330
4FFB
100
AcDbEntity
  8
V0-VYPLNE
 62
     0
100
AcDbBlockReference
  2
_OPEN
 10
1532.267002000008
 20
339.4316430000001
 30
0.0
 41
40.0
 42
40.0
 43
40.0
 50
90.0
  0
INSERT
  5
5000
330
4FFB
100
AcDbEntity
  8
V0-VYPLNE
 62
     0
100
AcDbBlockReference
  2
_OPEN
 10
1532.267002000008
 20
-361.4334569999999
 30
0.0
 41
40.0
 42
40.0
 43
40.0
 50
270.0
  0
MTEXT
  5
5001
330
4FFB
100
AcDbEntity
  8
V0-VYPLNE
 62
    41
100
AcDbMText
 10
1510.267002000008
 20
-11.00090699999993
 30
0.0
 40
40.0
 41
0.0
 71
     5
 72
     1
  1
%%C730
  7
ED40
 11
0.0
 21
1.0
 31
0.0
  0
POINT
  5
5002
330
4FFB
100
AcDbEntity
  8
DEFPOINTS
 62
     0
100
AcDbPoint
 10
1247.980991
 20
339.431643
 30
0.0
  0
POINT
  5
5003
330
4FFB
100
AcDbEntity
  8
DEFPOINTS
 62
     0
100
AcDbPoint
 10
1247.980991
 20
-361.433457
 30
0.0
  0
POINT
  5
5004
330
4FFB
100
AcDbEntity
  8
DEFPOINTS
 62
     0
100
AcDbPoint
 10
1532.267002000008
 20
-361.433457
 30
0.0
  0
ENDBLK
  5
5006
330
4FFB
100
AcDbEntity
  8
0
100
AcDbBlockEnd
  0
BLOCK
  5
5011
330
5007
100
AcDbEntity
  8
0
100
AcDbBlockBegin
  2
*D13
 70
     1
 71
     0
 10
0.0
 20
0.0
 30
0.0
  3
*D13
  1

  0
LINE
  5
5008
330
5007
100
AcDbEntity
  8
V0-VYPLNE
 62
    41
100
AcDbLine
 10
1168.510032
 20
-52.000918
 30
0.0
 11
1168.510032
 21
-590.6889659999749
 31
0.0
  0
LINE
  5
5009
330
5007
100
AcDbEntity
  8
V0-VYPLNE
 62
    41
100
AcDbLine
 10
1350.878441
 20
-328.000457
 30
0.0
 11
1350.878441
 21
-590.6889659999749
 31
0.0
  0
LINE
  5
500A
330
5007
100
AcDbEntity
  8
V0-VYPLNE
 62
     0
100
AcDbLine
 10
1208.510032
 20
-589.4389659999749
 30
0.0
 11
1310.878441
 21
-589.4389659999749
 31
0.0
  0
INSERT
  5
500B
330
5007
100
AcDbEntity
  8
V0-VYPLNE
 62
     0
100
AcDbBlockReference
  2
_OPEN
 10
1168.510032
 20
-589.4389659999749
 30
0.0
 41
40.0
 42
40.0
 43
40.0
 50
180.0
  0
INSERT
  5
500C
330
5007
100
AcDbEntity
  8
V0-VYPLNE
 62
     0
100
AcDbBlockReference
  2
_OPEN
 10
1350.878441
 20
-589.4389659999749
 30
0.0
 41
40.0
 42
40.0
 43
40.0
  0
MTEXT
  5
500D
330
5007
100
AcDbEntity
  8
V0-VYPLNE
 62
    41
100
AcDbMText
 10
1259.6942365
 20
-567.4389659999749
 30
0.0
 40
40.0
 41
0.0
 71
     5
 72
     1
  1
\A1;182
  7
ED40
  0
POINT
  5
500E
330
5007
100
AcDbEntity
  8
DEFPOINTS
 62
     0
100
AcDbPoint
 10
1168.510032
 20
-51.000918
 30
0.0
  0
POINT
  5
500F
330
5007
100
AcDbEntity
  8
DEFPOINTS
 62
     0
100
AcDbPoint
 10
1350.878441
 20
-327.000457
 30
0.0
  0
POINT
  5
5010
330
5007
100
AcDbEntity
  8
DEFPOINTS
 62
     0
100
AcDbPoint
 10
1350.878441
 20
-589.4389659999749
 30
0.0
  0
ENDBLK
  5
5012
330
5007
100
AcDbEntity
  8
0
100
AcDbBlockEnd
  0
ENDSEC
  0
SECTION
  2
ENTITIES
  0
TEXT
  5
3152
330
4F8D
100
AcDbEntity
  8
V0-VYPLNE
  6
CONTINUOUS
 62
    51
100
AcDbText
 10
1760.348422395834
 20
-1225.367644220238
 30
0.0
 40
64.8
  1
Axiální ventilátor
  7
ED30
100
AcDbText
  0
TEXT
  5
3154
330
4F8D
100
AcDbEntity
  8
V0-VYPLNE
 62
     6
100
AcDbText
 10
1655.0
 20
-1106.473
 30
0.0
 40
86.40000000000001
  1
HXBR/HXTR 630
  7
ED40
100
AcDbText
  0
LINE
  5
3F3A
330
4F8D
100
AcDbEntity
  8
V0-OBRYS
  6
CONTINUOUS
 62
    90
 48
2.0
100
AcDbLine
 10
1350.878441
 20
-326.000457
 30
0.0
 11
1290.083015
 21
-326.000457
 31
0.0
  0
LINE
  5
3F3B
330
4F8D
100
AcDbEntity
  8
V0-OBRYS
  6
CONTINUOUS
 62
    90
 48
2.0
100
AcDbLine
 10
1350.878441
 20
303.998643
 30
0.0
 11
1290.083015
 21
303.998643
 31
0.0
  0
ARC
  5
3F3C
330
4F8D
100
AcDbEntity
  8
V0-OBRYS
  6
CONTINUOUS
 62
    90
 48
2.0
100
AcDbCircle
 10
1290.083015
 20
-352.575207
 30
0.0
 40
26.57475
100
AcDbArc
 50
90.0
 51
149.420799
  0
LINE
  5
3F3D
330
4F8D
100
AcDbEntity
  8
V0-OBRYS
  6
CONTINUOUS
 62
    90
 48
2.0
100
AcDbLine
 10
1247.980991
 20
-361.433457
 30
0.0
 11
1267.204101
 21
-339.055863
 31
0.0
  0
ARC
  5
3F3F
330
4F8D
100
AcDbEntity
  8
V0-OBRYS
  6
CONTINUOUS
 62
    90
 48
2.0
100
AcDbCircle
 10
1290.083015
 20
330.573393
 30
0.0
 40
26.57475
100
AcDbArc
 50
210.579201
 51
270.0
  0
LINE
  5
3F40
330
4F8D
100
AcDbEntity
  8
V0-OBRYS
  6
CONTINUOUS
 62
    90
 48
2.0
100
AcDbLine
 10
1247.980991
 20
339.431643
 30
0.0
 11
1267.204101
 21
317.054049
 31
0.0
  0
DIMENSION
  5
3F41
330
4F8D
100
AcDbEntity
  8
V0-VYPLNE
  6
CONTINUOUS
 62
    41
100
AcDbDimension
  2
*D8
 10
1455.237179000047
 20
-326.000457
 30
0.0
 11
1455.237179
 21
-11.000907
 31
0.0
 70
   160
  1
%%c<>
  3
ED40
100
AcDbAlignedDimension
 13
1350.878441
 23
303.998643
 33
0.0
 14
1350.878441
 24
-326.000457
 34
0.0
 50
90.0
100
AcDbRotatedDimension
  0
LINE
  5
3F42
330
4F8D
100
AcDbEntity
  8
V0-OBRYS
  6
CONTINUOUS
 62
    90
 48
2.0
100
AcDbLine
 10
1350.878441
 20
-11.000907
 30
0.0
 11
1350.878441
 21
303.998643
 31
0.0
  0
LINE
  5
3F43
330
4F8D
100
AcDbEntity
  8
V0-OBRYS
  6
CONTINUOUS
 62
    90
 48
2.0
100
AcDbLine
 10
1350.878441
 20
-11.000907
 30
0.0
 11
1350.878441
 21
-326.000457
 31
0.0
  0
LINE
  5
3F5C
330
4F8D
100
AcDbEntity
  8
V0-VYPLNE
  6
DASHED
 62
    52
100
AcDbLine
 10
1271.681671
 20
-119.17372
 30
0.0
 11
1287.815098
 21
-320.621978
 31
0.0
  0
LINE
  5
3F5D
330
4F8D
100
AcDbEntity
  8
V0-VYPLNE
  6
DASHED
 62
    52
100
AcDbLine
 10
1346.760398
 20
-119.17372
 30
0.0
 11
1330.62697
 21
-320.621978
 31
0.0
  0
LINE
  5
3F6B
330
4F8D
100
AcDbEntity
  8
V0-VYPLNE
  6
DASHED
 62
    52
100
AcDbLine
 10
1287.815098
 20
-320.621978
 30
0.0
 11
1330.62697
 21
-320.621978
 31
0.0
  0
ELLIPSE
  5
3F6C
330
4F8D
100
AcDbEntity
  8
V0-VYPLNE
  6
DASHED
 62
    52
100
AcDbEllipse
 10
299.731999
 20
-100.746661
 30
0.0
 11
-90.48858875231304
 21
1178.04067163867
 31
0.0
210
0.0
220
0.0
230
-1.0
 40
0.903582
 41
1.483551230844037
 42
1.563720166184187
  0
LINE
  5
3F6D
330
4F8D
100
AcDbEntity
  8
V0-VYPLNE
  6
DASHED
 62
    52
100
AcDbLine
 10
1271.721034
 20
-10.64894
 30
0.0
 11
1271.721034
 21
89.67106
 31
0.0
  0
LINE
  5
3F6E
330
4F8D
100
AcDbEntity
  8
V0-VYPLNE
  6
DASHED
 62
    52
100
AcDbLine
 10
1310.721034
 20
94.70048199999999
 30
0.0
 11
1310.721034
 21
-10.64894
 31
0.0
  0
LINE
  5
3F6F
330
4F8D
100
AcDbEntity
  8
V0-VYPLNE
  6
DASHDOT
 62
    63
100
AcDbLine
 10
1220.917908
 20
-11.001013
 30
0.0
 11
1369.902694
 21
-11.001013
 31
0.0
  0
ELLIPSE
  5
3F70
330
4F8D
100
AcDbEntity
  8
V0-VYPLNE
  6
DASHED
 62
    52
100
AcDbEllipse
 10
1309.042964
 20
42.418314
 30
0.0
 11
-3.259087625325492
 21
158.3864983518269
 31
0.0
210
0.0
220
0.0
230
-1.0
 40
0.950159
 41
2.949539719734717
 42
3.413799455236087
  0
LINE
  5
3F71
330
4F8D
100
AcDbEntity
  8
V0-VYPLNE
  6
DASHED
 62
    52
100
AcDbLine
 10
1272.356234
 20
-22.695027
 30
0.0
 11
1351.465076
 21
1.810407999999999
 31
0.0
  0
LINE
  5
3F72
330
4F8D
100
AcDbEntity
  8
V0-VYPLNE
  6
DASHED
 62
    52
100
AcDbLine
 10
1310.721034
 20
-115.998362
 30
0.0
 11
1310.721034
 21
-10.64894
 31
0.0
  0
LINE
  5
3F73
330
4F8D
100
AcDbEntity
  8
V0-VYPLNE
  6
DASHED
 62
    52
100
AcDbLine
 10
1271.721034
 20
-10.64894
 30
0.0
 11
1271.721034
 21
-110.96894
 31
0.0
  0
LINE
  5
3F74
330
4F8D
100
AcDbEntity
  8
V0-VYPLNE
  6
DASHED
 62
    52
100
AcDbLine
 10
1277.827739
 20
-112.41928
 30
0.0
 11
1271.681671
 21
-119.17372
 31
0.0
  0
ELLIPSE
  5
3F75
330
4F8D
100
AcDbEntity
  8
V0-VYPLNE
  6
DASHED
 62
    52
100
AcDbEllipse
 10
1310.721034
 20
-11.001013
 30
0.0
 11
6.821210263296962E-13
 21
7.458195139447457
 31
0.0
210
0.0
220
0.0
230
-1.0
 40
0.909091
 41
0.0
 42
6.283185307179586
  0
ELLIPSE
  5
3F76
330
4F8D
100
AcDbEntity
  8
V0-VYPLNE
  6
DASHED
 62
    52
100
AcDbEllipse
 10
299.731999
 20
79.448781
 30
0.0
 11
90.48858875235604
 21
1178.040671638683
 31
0.0
210
0.0
220
0.0
230
-1.0
 40
0.9035820000000008
 41
1.577872487405572
 42
1.65804142274572
  0
ELLIPSE
  5
3F78
330
4F8D
100
AcDbEntity
  8
V0-VYPLNE
  6
DASHED
 62
    52
100
AcDbEllipse
 10
1345.078708
 20
-106.97393
 30
0.0
 11
-7.8346973290802
 21
2.993262335647586
 31
0.0
210
0.0
220
0.0
230
-1.0
 40
0.790223
 41
2.346836735397626
 42
3.616065469384971
  0
LINE
  5
3F79
330
4F8D
100
AcDbEntity
  8
V0-VYPLNE
  6
DASHED
 62
    52
100
AcDbLine
 10
1287.815098
 20
299.324098
 30
0.0
 11
1330.62697
 21
299.324098
 31
0.0
  0
ELLIPSE
  5
3F7A
330
4F8D
100
AcDbEntity
  8
V0-VYPLNE
  6
DASHED
 62
    52
100
AcDbEllipse
 10
1309.042964
 20
-63.716194
 30
0.0
 11
3.259087625323901
 21
158.3864983518269
 31
0.0
210
0.0
220
0.0
230
-1.0
 40
0.950159
 41
-0.2722068016462947
 42
0.1920529338550488
  0
LINE
  5
3F7B
330
4F8D
100
AcDbEntity
  8
V0-VYPLNE
  6
DASHED
 62
    52
100
AcDbLine
 10
1271.681671
 20
97.87584
 30
0.0
 11
1287.815098
 21
299.324098
 31
0.0
  0
LINE
  5
3F7C
330
4F8D
100
AcDbEntity
  8
V0-VYPLNE
  6
DASHED
 62
    52
100
AcDbLine
 10
1277.827739
 20
91.12139999999999
 30
0.0
 11
1271.681671
 21
97.87584
 31
0.0
  0
LINE
  5
3F7D
330
4F8D
100
AcDbEntity
  8
V0-VYPLNE
  6
DASHED
 62
    52
100
AcDbLine
 10
1346.760398
 20
97.87584
 30
0.0
 11
1330.62697
 21
299.324098
 31
0.0
  0
LINE
  5
3F8B
330
4F8D
100
AcDbEntity
  8
V0-OBRYS
  6
CONTINUOUS
 62
    90
 48
2.0
100
AcDbLine
 10
1236.721191
 20
388.999093
 30
0.0
 11
1236.721191
 21
-11.00090699999998
 31
0.0
  0
LINE
  5
3F91
330
4F8D
100
AcDbEntity
  8
V0-OBRYS
  6
CONTINUOUS
 62
    90
 48
2.0
100
AcDbLine
 10
1236.721191
 20
-411.000907
 30
0.0
 11
1236.721191
 21
-11.00090699999998
 31
0.0
  0
LINE
  5
3F92
330
4F8D
100
AcDbEntity
  8
V0-OBRYS
  6
CONTINUOUS
 62
    90
 48
2.0
100
AcDbLine
 10
1220.090934
 20
-277.568871
 30
0.0
 11
1220.090934
 21
-174.25365
 31
0.0
  0
LINE
  5
3F93
330
4F8D
100
AcDbEntity
  8
V0-OBRYS
  6
CONTINUOUS
 62
    90
 48
2.0
100
AcDbLine
 10
1222.901635
 20
-277.568871
 30
0.0
 11
1222.901635
 21
-174.25365
 31
0.0
  0
LINE
  5
3F94
330
4F8D
100
AcDbEntity
  8
V0-OBRYS
  6
CONTINUOUS
 62
    90
 48
2.0
100
AcDbLine
 10
1248.321191
 20
-411.000907
 30
0.0
 11
1236.721191
 21
-411.000907
 31
0.0
  0
ARC
  5
3F97
330
4F8D
100
AcDbEntity
  8
V0-OBRYS
  6
CONTINUOUS
 62
    90
 48
2.0
100
AcDbCircle
 10
1229.090934
 20
-277.568871
 30
0.0
 40
6.189299
100
AcDbArc
 50
180.0
 51
215.946405
  0
ARC
  5
3F98
330
4F8D
100
AcDbEntity
  8
V0-OBRYS
  6
CONTINUOUS
 62
    90
 48
2.0
100
AcDbCircle
 10
1233.534701
 20
-277.476612
 30
0.0
 40
13.444084
100
AcDbArc
 50
180.393192
 51
223.416411
  0
CIRCLE
  5
3F99
330
4F8D
100
AcDbEntity
  8
V0-OBRYS
  6
CONTINUOUS
 62
    90
 48
2.0
100
AcDbCircle
 10
1217.195912
 20
-270.42224
 30
0.0
 40
2.894689
  0
CIRCLE
  5
3F9A
330
4F8D
100
AcDbEntity
  8
V0-OBRYS
  6
CONTINUOUS
 62
    90
 48
2.0
100
AcDbCircle
 10
1217.195912
 20
-248.82224
 30
0.0
 40
2.894689
  0
LINE
  5
3F9B
330
4F8D
100
AcDbEntity
  8
V0-OBRYS
  6
CONTINUOUS
 62
    90
 48
2.0
100
AcDbLine
 10
1233.886152
 20
-366.546817
 30
0.0
 11
1233.886152
 21
-349.754848
 31
0.0
  0
ARC
  5
3F9C
330
4F8D
100
AcDbEntity
  8
V0-OBRYS
  6
CONTINUOUS
 62
    90
 48
2.0
100
AcDbCircle
 10
1235.303672
 20
-366.546817
 30
0.0
 40
1.41752
100
AcDbArc
 50
180.0
 51
0.0
  0
CIRCLE
  5
3FA2
330
4F8D
100
AcDbEntity
  8
V0-OBRYS
  6
CONTINUOUS
 62
    90
 48
2.0
100
AcDbCircle
 10
1217.195912
 20
-227.22224
 30
0.0
 40
2.894689
  0
CIRCLE
  5
3FA3
330
4F8D
100
AcDbEntity
  8
V0-OBRYS
  6
CONTINUOUS
 62
    90
 48
2.0
100
AcDbCircle
 10
1217.195912
 20
-205.62224
 30
0.0
 40
2.894689
  0
CIRCLE
  5
3FA4
330
4F8D
100
AcDbEntity
  8
V0-OBRYS
  6
CONTINUOUS
 62
    90
 48
2.0
100
AcDbCircle
 10
1217.195912
 20
-184.02224
 30
0.0
 40
2.894689
  0
ARC
  5
3FA6
330
4F8D
100
AcDbEntity
  8
V0-OBRYS
  6
CONTINUOUS
 62
    90
 48
2.0
100
AcDbCircle
 10
1229.090934
 20
152.251836
 30
0.0
 40
6.189299
100
AcDbArc
 50
180.0
 51
191.903847
  0
ARC
  5
3FA7
330
4F8D
100
AcDbEntity
  8
V0-OBRYS
  6
CONTINUOUS
 62
    90
 48
2.0
100
AcDbCircle
 10
1229.090934
 20
152.251836
 30
0.0
 40
9.0
100
AcDbArc
 50
180.0
 51
191.903847
  0
ARC
  5
3FAA
330
4F8D
100
AcDbEntity
  8
V0-OBRYS
  6
CONTINUOUS
 62
    90
 48
2.0
100
AcDbCircle
 10
1226.053465
 20
79.396551
 30
0.0
 40
11.810701
100
AcDbArc
 50
1.052754
 51
11.903847
  0
ARC
  5
3FAB
330
4F8D
100
AcDbEntity
  8
V0-OBRYS
  6
CONTINUOUS
 62
    90
 48
2.0
100
AcDbCircle
 10
1226.053465
 20
79.396551
 30
0.0
 40
9.0
100
AcDbArc
 50
0.0
 51
11.903847
  0
CIRCLE
  5
3FAC
330
4F8D
100
AcDbEntity
  8
V0-OBRYS
  6
CONTINUOUS
 62
    90
 48
2.0
100
AcDbCircle
 10
1217.32239
 20
226.820426
 30
0.0
 40
2.894689
  0
LINE
  5
3FAD
330
4F8D
100
AcDbEntity
  8
V0-OBRYS
  6
CONTINUOUS
 62
    90
 48
2.0
100
AcDbLine
 10
1222.901635
 20
255.567058
 30
0.0
 11
1222.901635
 21
152.251836
 31
0.0
  0
LINE
  5
3FAE
330
4F8D
100
AcDbEntity
  8
V0-OBRYS
  6
CONTINUOUS
 62
    90
 48
2.0
100
AcDbLine
 10
1220.090934
 20
255.567058
 30
0.0
 11
1220.090934
 21
152.251836
 31
0.0
  0
CIRCLE
  5
3FAF
330
4F8D
100
AcDbEntity
  8
V0-OBRYS
  6
CONTINUOUS
 62
    90
 48
2.0
100
AcDbCircle
 10
1217.32239
 20
205.220426
 30
0.0
 40
2.894689
  0
CIRCLE
  5
3FB0
330
4F8D
100
AcDbEntity
  8
V0-OBRYS
  6
CONTINUOUS
 62
    90
 48
2.0
100
AcDbCircle
 10
1217.32239
 20
162.020426
 30
0.0
 40
2.894689
  0
CIRCLE
  5
3FB1
330
4F8D
100
AcDbEntity
  8
V0-OBRYS
  6
CONTINUOUS
 62
    90
 48
2.0
100
AcDbCircle
 10
1217.32239
 20
183.620426
 30
0.0
 40
2.894689
  0
ARC
  5
3FB4
330
4F8D
100
AcDbEntity
  8
V0-OBRYS
  6
CONTINUOUS
 62
    90
 48
2.0
100
AcDbCircle
 10
1229.090934
 20
255.567058
 30
0.0
 40
6.189299
100
AcDbArc
 50
144.607521
 51
180.0
  0
CIRCLE
  5
3FB5
330
4F8D
100
AcDbEntity
  8
V0-OBRYS
  6
CONTINUOUS
 62
    90
 48
2.0
100
AcDbCircle
 10
1217.32239
 20
248.420426
 30
0.0
 40
2.894689
  0
ARC
  5
3FB6
330
4F8D
100
AcDbEntity
  8
V0-OBRYS
  6
CONTINUOUS
 62
    90
 48
2.0
100
AcDbCircle
 10
1229.090934
 20
255.567058
 30
0.0
 40
9.0
100
AcDbArc
 50
144.271055
 51
180.0
  0
ARC
  5
3FB7
330
4F8D
100
AcDbEntity
  8
V0-OBRYS
  6
CONTINUOUS
 62
    90
 48
2.0
100
AcDbCircle
 10
1235.303672
 20
344.545004
 30
0.0
 40
1.41752
100
AcDbArc
 50
0.0
 51
180.0
  0
LINE
  5
3FB8
330
4F8D
100
AcDbEntity
  8
V0-OBRYS
  6
CONTINUOUS
 62
    90
 48
2.0
100
AcDbLine
 10
1233.886152
 20
344.545004
 30
0.0
 11
1233.886152
 21
327.753034
 31
0.0
  0
LINE
  5
3FB9
330
4F8D
100
AcDbEntity
  8
V0-OBRYS
  6
CONTINUOUS
 62
    90
 48
2.0
100
AcDbLine
 10
1248.321191
 20
388.999093
 30
0.0
 11
1236.721191
 21
388.999093
 31
0.0
  0
LINE
  5
4016
330
4F8D
100
AcDbEntity
  8
V0-OBRYS
  6
CONTINUOUS
 62
    90
 48
2.0
100
AcDbLine
 10
1220.499806
 20
57.577264
 30
0.0
 11
1195.448036
 21
42.428131
 31
0.0
  0
LINE
  5
4017
330
4F8D
100
AcDbEntity
  8
V0-OBRYS
  6
CONTINUOUS
 62
    90
 48
2.0
100
AcDbLine
 10
1221.257965
 20
73.483856
 30
0.0
 11
1194.689883
 21
51.517613
 31
0.0
  0
LINE
  5
4018
330
4F8D
100
AcDbEntity
  8
V0-OBRYS
  6
CONTINUOUS
 62
    90
 48
2.0
100
AcDbLine
 10
1220.499806
 20
2.282927
 30
0.0
 11
1194.689883
 21
1.525471
 31
0.0
  0
LINE
  5
4019
330
4F8D
100
AcDbEntity
  8
V0-OBRYS
  6
CONTINUOUS
 62
    90
 48
2.0
100
AcDbLine
 10
1220.499806
 20
20.461888
 30
0.0
 11
1194.689883
 21
17.43206
 31
0.0
  0
LINE
  5
401A
330
4F8D
100
AcDbEntity
  8
V0-OBRYS
  6
CONTINUOUS
 62
    90
 48
2.0
100
AcDbLine
 10
1221.257965
 20
38.640846
 30
0.0
 11
1193.931724
 21
31.823736
 31
0.0
  0
LINE
  5
401B
330
4F8D
100
AcDbEntity
  8
V0-OBRYS
  6
CONTINUOUS
 62
    90
 48
2.0
100
AcDbLine
 10
1220.499806
 20
-42.463702
 30
0.0
 11
1194.689883
 21
-39.433874
 31
0.0
  0
LINE
  5
401C
330
4F8D
100
AcDbEntity
  8
V0-OBRYS
  6
CONTINUOUS
 62
    90
 48
2.0
100
AcDbLine
 10
1220.499806
 20
-24.284741
 30
0.0
 11
1194.689883
 21
-23.527285
 31
0.0
  0
LINE
  5
401D
330
4F8D
100
AcDbEntity
  8
V0-OBRYS
  6
CONTINUOUS
 62
    90
 48
2.0
100
AcDbLine
 10
1221.257965
 20
-60.64266
 30
0.0
 11
1193.931724
 21
-53.82555
 31
0.0
  0
LINE
  5
401E
330
4F8D
100
AcDbEntity
  8
V0-OBRYS
  6
CONTINUOUS
 62
    90
 48
2.0
100
AcDbLine
 10
1221.257965
 20
-95.48567
 30
0.0
 11
1194.689883
 21
-73.51942699999999
 31
0.0
  0
LINE
  5
401F
330
4F8D
100
AcDbEntity
  8
V0-OBRYS
  6
CONTINUOUS
 62
    90
 48
2.0
100
AcDbLine
 10
1220.499806
 20
-79.579078
 30
0.0
 11
1195.448036
 21
-64.429945
 31
0.0
  0
LINE
  5
4021
330
4F8D
100
AcDbEntity
  8
V0-OBRYS
  6
CONTINUOUS
 62
    90
 48
2.0
100
AcDbLine
 10
1207.29963
 20
-101.001627
 30
0.0
 11
1236.72115
 21
-101.001627
 31
0.0
  0
LINE
  5
4022
330
4F8D
100
AcDbEntity
  8
V0-OBRYS
  6
CONTINUOUS
 62
    90
 48
2.0
100
AcDbLine
 10
1207.29963
 20
78.999813
 30
0.0
 11
1236.72115
 21
78.999813
 31
0.0
  0
LINE
  5
4023
330
4F8D
100
AcDbEntity
  8
V0-OBRYS
  6
CONTINUOUS
 62
    90
 48
2.0
100
AcDbLine
 10
1194.51003
 20
-11.000907
 30
0.0
 11
1194.51003
 21
-85.21202700000001
 31
0.0
  0
ARC
  5
4024
330
4F8D
100
AcDbEntity
  8
V0-OBRYS
  6
CONTINUOUS
 62
    90
 48
2.0
100
AcDbCircle
 10
1207.779924
 20
-87.53798999999999
 30
0.0
 40
13.472201
100
AcDbArc
 50
170.05812
 51
267.95693
  0
LINE
  5
4025
330
4F8D
100
AcDbEntity
  8
V0-OBRYS
  6
CONTINUOUS
 62
    90
 48
2.0
100
AcDbLine
 10
1194.51003
 20
-11.000907
 30
0.0
 11
1194.51003
 21
63.21021300000001
 31
0.0
  0
ARC
  5
4026
330
4F8D
100
AcDbEntity
  8
V0-OBRYS
  6
CONTINUOUS
 62
    90
 48
2.0
100
AcDbCircle
 10
1207.779924
 20
65.536177
 30
0.0
 40
13.472201
100
AcDbArc
 50
92.04307
 51
189.94188
  0
LINE
  5
4028
330
4F8D
100
AcDbEntity
  8
V0-OBRYS
  6
CONTINUOUS
 62
    90
 48
2.0
100
AcDbLine
 10
1221.51027
 20
-11.000907
 30
0.0
 11
1221.51027
 21
-101.001627
 31
0.0
  0
LINE
  5
4029
330
4F8D
100
AcDbEntity
  8
V0-OBRYS
  6
CONTINUOUS
 62
    90
 48
2.0
100
AcDbLine
 10
1221.257965
 20
-95.48567
 30
0.0
 11
1236.72115
 21
-95.48567
 31
0.0
  0
LINE
  5
402A
330
4F8D
100
AcDbEntity
  8
V0-OBRYS
  6
CONTINUOUS
 62
    90
 48
2.0
100
AcDbLine
 10
1225.048742
 20
-42.463702
 30
0.0
 11
1236.72115
 21
-42.463702
 31
0.0
  0
LINE
  5
402B
330
4F8D
100
AcDbEntity
  8
V0-OBRYS
  6
CONTINUOUS
 62
    90
 48
2.0
100
AcDbLine
 10
1221.257965
 20
-60.64266
 30
0.0
 11
1236.72115
 21
-60.64266
 31
0.0
  0
LINE
  5
402C
330
4F8D
100
AcDbEntity
  8
V0-OBRYS
  6
CONTINUOUS
 62
    90
 48
2.0
100
AcDbLine
 10
1220.499806
 20
-79.579078
 30
0.0
 11
1236.72115
 21
-79.579078
 31
0.0
  0
LINE
  5
402D
330
4F8D
100
AcDbEntity
  8
V0-OBRYS
  6
CONTINUOUS
 62
    90
 48
2.0
100
AcDbLine
 10
1220.499806
 20
-42.463702
 30
0.0
 11
1225.048742
 21
-42.463702
 31
0.0
  0
LINE
  5
402E
330
4F8D
100
AcDbEntity
  8
V0-OBRYS
  6
CONTINUOUS
 62
    90
 48
2.0
100
AcDbLine
 10
1221.51027
 20
-11.000907
 30
0.0
 11
1221.51027
 21
78.999813
 31
0.0
  0
LINE
  5
402F
330
4F8D
100
AcDbEntity
  8
V0-OBRYS
  6
CONTINUOUS
 62
    90
 48
2.0
100
AcDbLine
 10
1225.048742
 20
20.461888
 30
0.0
 11
1236.72115
 21
20.461888
 31
0.0
  0
LINE
  5
4030
330
4F8D
100
AcDbEntity
  8
V0-OBRYS
  6
CONTINUOUS
 62
    90
 48
2.0
100
AcDbLine
 10
1220.499806
 20
-24.284741
 30
0.0
 11
1236.72115
 21
-24.284741
 31
0.0
  0
LINE
  5
4031
330
4F8D
100
AcDbEntity
  8
V0-OBRYS
  6
CONTINUOUS
 62
    90
 48
2.0
100
AcDbLine
 10
1220.499806
 20
2.282927
 30
0.0
 11
1236.72115
 21
2.282927
 31
0.0
  0
LINE
  5
4032
330
4F8D
100
AcDbEntity
  8
V0-OBRYS
  6
CONTINUOUS
 62
    90
 48
2.0
100
AcDbLine
 10
1221.257965
 20
38.640846
 30
0.0
 11
1236.72115
 21
38.640846
 31
0.0
  0
LINE
  5
4033
330
4F8D
100
AcDbEntity
  8
V0-OBRYS
  6
CONTINUOUS
 62
    90
 48
2.0
100
AcDbLine
 10
1220.499806
 20
20.461888
 30
0.0
 11
1225.048742
 21
20.461888
 31
0.0
  0
LINE
  5
4034
330
4F8D
100
AcDbEntity
  8
V0-OBRYS
  6
CONTINUOUS
 62
    90
 48
2.0
100
AcDbLine
 10
1220.499806
 20
57.577264
 30
0.0
 11
1236.72115
 21
57.577264
 31
0.0
  0
LINE
  5
4035
330
4F8D
100
AcDbEntity
  8
V0-OBRYS
  6
CONTINUOUS
 62
    90
 48
2.0
100
AcDbLine
 10
1221.257965
 20
73.483856
 30
0.0
 11
1236.72115
 21
73.483856
 31
0.0
  0
LINE
  5
404E
330
4F8D
100
AcDbEntity
  8
V0-VYPLNE
  6
DASHED
 62
    52
100
AcDbLine
 10
1263.992166
 20
-93.106827
 30
0.0
 11
1263.992166
 21
-11.000907
 31
0.0
  0
LINE
  5
4050
330
4F8D
100
AcDbEntity
  8
V0-VYPLNE
  6
DASHED
 62
    52
100
AcDbLine
 10
1236.721237
 20
-95.48567
 30
0.0
 11
1263.992166
 21
-95.48567
 31
0.0
  0
LINE
  5
4051
330
4F8D
100
AcDbEntity
  8
V0-VYPLNE
  6
DASHED
 62
    52
100
AcDbLine
 10
1236.721237
 20
-101.001627
 30
0.0
 11
1248.097366
 21
-101.001627
 31
0.0
  0
LINE
  5
4052
330
4F8D
100
AcDbEntity
  8
V0-VYPLNE
  6
DASHED
 62
    52
100
AcDbLine
 10
1236.721237
 20
-79.579078
 30
0.0
 11
1263.992166
 21
-79.579078
 31
0.0
  0
LINE
  5
4053
330
4F8D
100
AcDbEntity
  8
V0-VYPLNE
  6
DASHED
 62
    52
100
AcDbLine
 10
1236.721237
 20
-60.64266
 30
0.0
 11
1263.234013
 21
-60.64266
 31
0.0
  0
LINE
  5
4054
330
4F8D
100
AcDbEntity
  8
V0-VYPLNE
  6
DASHED
 62
    52
100
AcDbLine
 10
1236.721237
 20
-42.463702
 30
0.0
 11
1263.992166
 21
-42.463702
 31
0.0
  0
ARC
  5
4055
330
4F8D
100
AcDbEntity
  8
V0-VYPLNE
  6
DASHED
 62
    52
 48
2.0
100
AcDbCircle
 10
1248.984872
 20
-82.840363
 30
0.0
 40
18.182936
100
AcDbArc
 50
267.202292
 51
325.624038
  0
LINE
  5
4056
330
4F8D
100
AcDbEntity
  8
V0-VYPLNE
  6
DASHED
 62
    52
100
AcDbLine
 10
1236.721237
 20
2.282927
 30
0.0
 11
1263.234013
 21
2.282927
 31
0.0
  0
LINE
  5
4057
330
4F8D
100
AcDbEntity
  8
V0-VYPLNE
  6
DASHED
 62
    52
100
AcDbLine
 10
1236.721237
 20
20.461888
 30
0.0
 11
1263.992166
 21
20.461888
 31
0.0
  0
LINE
  5
4058
330
4F8D
100
AcDbEntity
  8
V0-VYPLNE
  6
DASHED
 62
    52
100
AcDbLine
 10
1236.721237
 20
38.640846
 30
0.0
 11
1263.234013
 21
38.640846
 31
0.0
  0
LINE
  5
4059
330
4F8D
100
AcDbEntity
  8
V0-VYPLNE
  6
DASHED
 62
    52
100
AcDbLine
 10
1236.721237
 20
57.577264
 30
0.0
 11
1263.992166
 21
57.577264
 31
0.0
  0
LINE
  5
405A
330
4F8D
100
AcDbEntity
  8
V0-VYPLNE
  6
DASHED
 62
    52
100
AcDbLine
 10
1236.721237
 20
73.483856
 30
0.0
 11
1263.992166
 21
73.483856
 31
0.0
  0
LINE
  5
405B
330
4F8D
100
AcDbEntity
  8
V0-VYPLNE
  6
DASHED
 62
    52
100
AcDbLine
 10
1236.721237
 20
78.999813
 30
0.0
 11
1248.097366
 21
78.999813
 31
0.0
  0
LINE
  5
405C
330
4F8D
100
AcDbEntity
  8
V0-VYPLNE
  6
DASHED
 62
    52
100
AcDbLine
 10
1236.721237
 20
-24.284741
 30
0.0
 11
1263.234013
 21
-24.284741
 31
0.0
  0
LINE
  5
405D
330
4F8D
100
AcDbEntity
  8
V0-VYPLNE
  6
DASHED
 62
    52
100
AcDbLine
 10
1263.992166
 20
71.105013
 30
0.0
 11
1263.992166
 21
-11.000907
 31
0.0
  0
ARC
  5
405E
330
4F8D
100
AcDbEntity
  8
V0-VYPLNE
  6
DASHED
 62
    52
 48
2.0
100
AcDbCircle
 10
1248.984872
 20
60.83855
 30
0.0
 40
18.182936
100
AcDbArc
 50
34.375962
 51
92.797708
  0
DIMENSION
  5
409E
330
4F8D
100
AcDbEntity
  8
V0-OBRYS
  6
CONTINUOUS
 62
    90
100
AcDbDimension
  2
*D9
 10
1350.878441
 20
-518.8638620000631
 30
0.0
 11
1298.791805
 21
-518.863862
 31
0.0
 70
   160
  3
ED40
100
AcDbAlignedDimension
 13
1248.321191
 23
-411.000907
 33
0.0
 14
1350.878441
 24
-326.000457
 34
0.0
100
AcDbRotatedDimension
  0
LINE
  5
43F7
330
4F8D
100
AcDbEntity
  8
V0-OBRYS
  6
CONTINUOUS
 62
    90
100
AcDbLine
 10
1248.321191
 20
388.999093
 30
0.0
 11
1248.321191
 21
-411.000907
 31
0.0
  0
ARC
  5
460E
330
4F8D
100
AcDbEntity
  8
V0-OBRYS
  6
CONTINUOUS
 62
    90
 48
2.0
100
AcDbCircle
 10
1226.393345
 20
-101.192417
 30
0.0
 40
9.0
100
AcDbArc
 50
348.220473
 51
0.215669
  0
ARC
  5
4611
330
4F8D
100
AcDbEntity
  8
V0-OBRYS
  6
CONTINUOUS
 62
    90
 48
2.0
100
AcDbCircle
 10
1229.573433
 20
-174.115047
 30
0.0
 40
9.0
100
AcDbArc
 50
168.220473
 51
180.215669
  0
ARC
  5
4612
330
4F8D
100
AcDbEntity
  8
V0-OBRYS
  6
CONTINUOUS
 62
    90
 48
2.0
100
AcDbCircle
 10
1229.573433
 20
-174.115047
 30
0.0
 40
6.189299
100
AcDbArc
 50
168.220473
 51
180.215669
  0
ARC
  5
4613
330
4F8D
100
AcDbEntity
  8
V0-OBRYS
  6
CONTINUOUS
 62
    90
 48
2.0
100
AcDbCircle
 10
1226.393345
 20
-101.192417
 30
0.0
 40
11.810701
100
AcDbArc
 50
348.220473
 51
359.162914
  0
LINE
  5
4693
330
4F8D
100
AcDbEntity
  8
V0-OBRYS
  6
CONTINUOUS
 62
    90
100
AcDbLine
 10
1224.080285
 20
-281.202165
 30
0.0
 11
1236.815059
 21
-348.411945
 31
0.0
  0
LINE
  5
4694
330
4F8D
100
AcDbEntity
  8
V0-OBRYS
  6
CONTINUOUS
 62
    90
100
AcDbLine
 10
1223.769216
 20
-286.716672
 30
0.0
 11
1233.684874
 21
-349.549267
 31
0.0
  0
LINE
  5
4695
330
4F8D
100
AcDbEntity
  8
V0-OBRYS
  6
CONTINUOUS
 62
    90
100
AcDbLine
 10
1221.784836
 20
260.82262
 30
0.0
 11
1233.962492
 21
327.797498
 31
0.0
  0
LINE
  5
4696
330
4F8D
100
AcDbEntity
  8
V0-OBRYS
  6
CONTINUOUS
 62
    90
100
AcDbLine
 10
1224.045393
 20
259.15174
 30
0.0
 11
1236.461091
 21
327.298186
 31
0.0
  0
LINE
  5
47FC
330
4F8D
100
AcDbEntity
  8
0
  6
BYBLOCK
 62
    41
100
AcDbLine
 10
1248.321191
 20
-412.000907
 30
0.0
 11
1248.321191
 21
-437.138425
 31
0.0
  0
POINT
  5
4803
330
4F8D
100
AcDbEntity
  8
DEFPOINTS
  6
BYBLOCK
 62
     0
100
AcDbPoint
 10
1236.721191
 20
-411.000907
 30
0.0
  0
POINT
  5
4804
330
4F8D
100
AcDbEntity
  8
DEFPOINTS
  6
BYBLOCK
 62
     0
100
AcDbPoint
 10
1248.321191
 20
-411.000907
 30
0.0
  0
LINE
  5
484D
330
4F8D
100
AcDbEntity
  8
V0-OBRYS
  6
CONTINUOUS
 62
    90
100
AcDbLine
 10
1223.034735
 20
150.97517
 30
0.0
 11
1237.610178
 21
81.83274299999999
 31
0.0
  0
LINE
  5
484E
330
4F8D
100
AcDbEntity
  8
V0-OBRYS
  6
CONTINUOUS
 62
    90
100
AcDbLine
 10
1220.284477
 20
150.395407
 30
0.0
 11
1234.859921
 21
81.25297999999999
 31
0.0
  0
LINE
  5
484F
330
4F8D
100
AcDbEntity
  8
V0-OBRYS
  6
CONTINUOUS
 62
    90
100
AcDbLine
 10
1237.955318
 20
-103.603528
 30
0.0
 11
1223.514479
 21
-172.851525
 31
0.0
  0
LINE
  5
4850
330
4F8D
100
AcDbEntity
  8
V0-OBRYS
  6
CONTINUOUS
 62
    90
100
AcDbLine
 10
1235.203809
 20
-103.029733
 30
0.0
 11
1220.76297
 21
-172.277731
 31
0.0
  0
DIMENSION
  5
4880
330
4F8D
100
AcDbEntity
  8
V0-VYPLNE
  6
CONTINUOUS
 62
    41
100
AcDbDimension
  2
*D10
 10
2434.77303
 20
-646.6306109998841
 30
0.0
 11
2029.484046
 21
-646.630611
 31
0.0
 70
   160
  3
ED40
100
AcDbAlignedDimension
 13
1634.831302
 23
-397.991569
 33
0.0
 14
2434.77303
 24
-397.991569
 34
0.0
100
AcDbRotatedDimension
  0
DIMENSION
  5
4881
330
4F8D
100
AcDbEntity
  8
V0-OBRYS
  6
CONTINUOUS
 62
    90
100
AcDbDimension
  2
*D11
 10
2389.552024
 20
-559.0191260001157
 30
0.0
 11
2022.177123
 21
-559.019126
 31
0.0
 70
   160
  3
ED40
100
AcDbAlignedDimension
 13
1679.552248
 23
-401.903842
 33
0.0
 14
2389.552024
 24
-401.903902
 34
0.0
100
AcDbRotatedDimension
  0
LINE
  5
4883
330
4F8D
100
AcDbEntity
  8
V0-OBRYS
  6
CONTINUOUS
100
AcDbLine
 10
2434.77303
 20
367.424879
 30
0.0
 11
2434.77303
 21
-381.2328489999999
 31
0.0
  0
LINE
  5
4884
330
4F8D
100
AcDbEntity
  8
V0-OBRYS
  6
CONTINUOUS
100
AcDbLine
 10
1634.831302
 20
-381.232849
 30
0.0
 11
1634.831302
 21
367.4248789999999
 31
0.0
  0
LINE
  5
4885
330
4F8D
100
AcDbEntity
  8
V0-OBRYS
  6
CONTINUOUS
100
AcDbLine
 10
2409.38103
 20
-406.624849
 30
0.0
 11
1660.223302
 21
-406.624849
 31
0.0
  0
ARC
  5
4886
330
4F8D
100
AcDbEntity
  8
V0-OBRYS
  6
CONTINUOUS
100
AcDbCircle
 10
1660.223302
 20
-381.232849
 30
0.0
 40
25.392
100
AcDbArc
 50
180.0
 51
270.0
  0
LINE
  5
4887
330
4F8D
100
AcDbEntity
  8
V0-VYPLNE
  6
DASHDOT
 62
    63
100
AcDbLine
 10
1679.552248
 20
-401.903842
 30
0.0
 11
1679.552248
 21
-317.723558
 31
0.0
  0
CIRCLE
  5
4888
330
4F8D
100
AcDbEntity
  8
V0-OBRYS
  6
CONTINUOUS
 62
    90
100
AcDbCircle
 10
1679.552248
 20
-361.903842
 30
0.0
 40
10.0
  0
LINE
  5
4889
330
4F8D
100
AcDbEntity
  8
V0-VYPLNE
  6
DASHDOT
 62
    63
100
AcDbLine
 10
1639.552248
 20
-361.903842
 30
0.0
 11
1724.564293
 21
-361.903842
 31
0.0
  0
LINE
  5
488A
330
4F8D
100
AcDbEntity
  8
V0-VYPLNE
  6
DASHDOT
 62
    63
100
AcDbLine
 10
2389.552024
 20
-401.903902
 30
0.0
 11
2389.552024
 21
-316.891858
 31
0.0
  0
LINE
  5
488B
330
4F8D
100
AcDbEntity
  8
V0-VYPLNE
  6
DASHDOT
 62
    63
100
AcDbLine
 10
2430.052024
 20
-361.903902
 30
0.0
 11
2345.371739
 21
-361.903902
 31
0.0
  0
CIRCLE
  5
488C
330
4F8D
100
AcDbEntity
  8
V0-OBRYS
  6
CONTINUOUS
 62
    90
100
AcDbCircle
 10
2389.552024
 20
-361.903902
 30
0.0
 40
10.0
  0
ARC
  5
488D
330
4F8D
100
AcDbEntity
  8
V0-OBRYS
  6
CONTINUOUS
100
AcDbCircle
 10
2409.38103
 20
-381.232849
 30
0.0
 40
25.392
100
AcDbArc
 50
270.0
 51
0.0
  0
LINE
  5
488F
330
4F8D
100
AcDbEntity
  8
V0-OBRYS
  6
CONTINUOUS
100
AcDbLine
 10
1660.223302
 20
392.816879
 30
0.0
 11
2409.38103
 21
392.816879
 31
0.0
  0
LINE
  5
4890
330
4F8D
100
AcDbEntity
  8
V0-VYPLNE
  6
DASHDOT
 62
    63
100
AcDbLine
 10
1639.552308
 20
348.095933
 30
0.0
 11
1723.732593
 21
348.095933
 31
0.0
  0
CIRCLE
  5
4891
330
4F8D
100
AcDbEntity
  8
V0-OBRYS
  6
CONTINUOUS
 62
    90
100
AcDbCircle
 10
1679.552308
 20
348.095933
 30
0.0
 40
10.0
  0
LINE
  5
4892
330
4F8D
100
AcDbEntity
  8
V0-VYPLNE
  6
DASHDOT
 62
    63
100
AcDbLine
 10
1679.552308
 20
388.095933
 30
0.0
 11
1679.552308
 21
303.083889
 31
0.0
  0
ARC
  5
4893
330
4F8D
100
AcDbEntity
  8
V0-OBRYS
  6
CONTINUOUS
100
AcDbCircle
 10
1660.223302
 20
367.424879
 30
0.0
 40
25.392
100
AcDbArc
 50
90.0
 51
180.0
  0
LINE
  5
4894
330
4F8D
100
AcDbEntity
  8
V0-VYPLNE
  6
DASHDOT
 62
    63
100
AcDbLine
 10
2430.052084
 20
348.095873
 30
0.0
 11
2344.540039
 21
348.095873
 31
0.0
  0
LINE
  5
4895
330
4F8D
100
AcDbEntity
  8
V0-VYPLNE
  6
DASHDOT
 62
    63
100
AcDbLine
 10
2389.552084
 20
388.095873
 30
0.0
 11
2389.552084
 21
303.915589
 31
0.0
  0
CIRCLE
  5
4896
330
4F8D
100
AcDbEntity
  8
V0-OBRYS
  6
CONTINUOUS
 62
    90
100
AcDbCircle
 10
2389.552084
 20
348.095873
 30
0.0
 40
10.0
  0
ARC
  5
4897
330
4F8D
100
AcDbEntity
  8
V0-OBRYS
  6
CONTINUOUS
100
AcDbCircle
 10
2409.38103
 20
367.424879
 30
0.0
 40
25.392
100
AcDbArc
 50
0.0
 51
90.0
  0
CIRCLE
  5
490A
330
4F8D
100
AcDbEntity
  8
V0-OBRYS
  6
CONTINUOUS
 62
    90
100
AcDbCircle
 10
2034.552166
 20
-6.903985
 30
0.0
 40
303.293686
  0
CIRCLE
  5
490B
330
4F8D
100
AcDbEntity
  8
V0-OBRYS
  6
CONTINUOUS
 62
    90
100
AcDbCircle
 10
2034.552166
 20
-6.903985
 30
0.0
 40
344.729054
  0
LINE
  5
490C
330
4F8D
100
AcDbEntity
  8
V0-OBRYS
  6
CONTINUOUS
 62
    90
100
AcDbLine
 10
1885.213778
 20
-18.261297
 30
0.0
 11
1953.527013
 21
-13.066017
 31
0.0
  0
LINE
  5
490D
330
4F8D
100
AcDbEntity
  8
V0-OBRYS
  6
CONTINUOUS
 62
    90
100
AcDbLine
 10
1885.213778
 20
4.453328
 30
0.0
 11
1953.527013
 21
-0.7419520000000004
 31
0.0
  0
LINE
  5
490E
330
4F8D
100
AcDbEntity
  8
V0-OBRYS
  6
CONTINUOUS
 62
    90
100
AcDbLine
 10
1955.57098
 20
12.201467
 30
0.0
 11
1887.965728
 21
28.555095
 31
0.0
  0
LINE
  5
490F
330
4F8D
100
AcDbEntity
  8
V0-OBRYS
  6
CONTINUOUS
 62
    90
100
AcDbLine
 10
1895.533583
 20
49.902377
 30
0.0
 11
1959.33073
 21
23.833317
 31
0.0
  0
LINE
  5
4910
330
4F8D
100
AcDbEntity
  8
V0-OBRYS
  6
CONTINUOUS
 62
    90
100
AcDbLine
 10
1933.308646
 20
53.606755
 30
0.0
 11
1903.789427
 21
71.24966000000001
 31
0.0
  0
LINE
  5
4911
330
4F8D
100
AcDbEntity
  8
V0-OBRYS
  6
CONTINUOUS
 62
    90
100
AcDbLine
 10
1928.818252
 20
-89.20340400000001
 30
0.0
 11
1934.612785
 21
-73.95602599999999
 31
0.0
  0
LINE
  5
4912
330
4F8D
100
AcDbEntity
  8
V0-OBRYS
  6
CONTINUOUS
 62
    90
100
AcDbLine
 10
1917.780015
 20
-123.725673
 30
0.0
 11
1930.788155
 21
-91.673585
 31
0.0
  0
LINE
  5
4913
330
4F8D
100
AcDbEntity
  8
V0-OBRYS
  6
CONTINUOUS
 62
    90
100
AcDbLine
 10
1933.308646
 20
-67.41472400000001
 30
0.0
 11
1903.789427
 21
-85.05762900000001
 31
0.0
  0
LINE
  5
4914
330
4F8D
100
AcDbEntity
  8
V0-OBRYS
  6
CONTINUOUS
 62
    90
100
AcDbLine
 10
1895.533583
 20
-63.710346
 30
0.0
 11
1959.33073
 21
-37.641286
 31
0.0
  0
LINE
  5
4915
330
4F8D
100
AcDbEntity
  8
V0-OBRYS
  6
CONTINUOUS
 62
    90
100
AcDbLine
 10
1955.57098
 20
-26.009436
 30
0.0
 11
1887.965728
 21
-42.363064
 31
0.0
  0
ARC
  5
4916
330
4F8D
100
AcDbEntity
  8
V0-OBRYS
  6
CONTINUOUS
 62
    90
100
AcDbCircle
 10
2034.552166
 20
-6.903985
 30
0.0
 40
118.467545
100
AcDbArc
 50
148.716649
 51
211.283351
  0
ARC
  5
4917
330
4F8D
100
AcDbEntity
  8
V0-OBRYS
  6
CONTINUOUS
 62
    90
100
AcDbCircle
 10
2034.552166
 20
-6.903985
 30
0.0
 40
315.0
100
AcDbArc
 50
236.13779
 51
252.433638
  0
LINE
  5
4918
330
4F8D
100
AcDbEntity
  8
VO-OBRYS
  6
CONTINUOUS
100
AcDbLine
 10
1961.13057
 20
-41.722302
 30
0.0
 11
1753.63044
 21
-249.222432
 31
0.0
  0
LINE
  5
4919
330
4F8D
100
AcDbEntity
  8
VO-OBRYS
  6
CONTINUOUS
100
AcDbLine
 10
1999.733848
 20
-80.325581
 30
0.0
 11
1792.233719
 21
-287.82571
 31
0.0
  0
LINE
  5
491A
330
4F8D
100
AcDbEntity
  8
VO-OBRYS
  6
CONTINUOUS
100
AcDbLine
 10
1962.999902
 20
-45.417874
 30
0.0
 11
1756.412892
 21
-252.004884
 31
0.0
  0
LINE
  5
491B
330
4F8D
100
AcDbEntity
  8
VO-OBRYS
  6
CONTINUOUS
100
AcDbLine
 10
1996.038277
 20
-78.456248
 30
0.0
 11
1789.451267
 21
-285.043259
 31
0.0
  0
LINE
  5
491C
330
4F8D
100
AcDbEntity
  8
VO-OBRYS
  6
CONTINUOUS
100
AcDbLine
 10
1961.13057
 20
27.914333
 30
0.0
 11
1753.63044
 21
235.414463
 31
0.0
  0
LINE
  5
491D
330
4F8D
100
AcDbEntity
  8
VO-OBRYS
  6
CONTINUOUS
100
AcDbLine
 10
1999.733848
 20
66.517612
 30
0.0
 11
1792.233719
 21
274.017741
 31
0.0
  0
LINE
  5
491E
330
4F8D
100
AcDbEntity
  8
VO-OBRYS
  6
CONTINUOUS
100
AcDbLine
 10
1962.999902
 20
31.609904
 30
0.0
 11
1756.412892
 21
238.196915
 31
0.0
  0
LINE
  5
491F
330
4F8D
100
AcDbEntity
  8
VO-OBRYS
  6
CONTINUOUS
100
AcDbLine
 10
1996.038277
 20
64.648279
 30
0.0
 11
1789.451267
 21
271.235289
 31
0.0
  0
LINE
  5
4920
330
4F8D
100
AcDbEntity
  8
V0-OBRYS
  6
CONTINUOUS
 62
    90
100
AcDbLine
 10
1907.767194
 20
160.103378
 30
0.0
 11
1943.149556
 21
135.377485
 31
0.0
  0
CIRCLE
  5
4921
330
4F8D
100
AcDbEntity
  8
V0-OBRYS
  6
CONTINUOUS
 62
    90
100
AcDbCircle
 10
2034.552166
 20
-6.903985
 30
0.0
 40
169.110773
  0
CIRCLE
  5
4922
330
4F8D
100
AcDbEntity
  8
V0-OBRYS
  6
CONTINUOUS
 62
    90
100
AcDbCircle
 10
2034.552166
 20
-6.903985
 30
0.0
 40
213.615424
  0
CIRCLE
  5
4923
330
4F8D
100
AcDbEntity
  8
V0-OBRYS
  6
CONTINUOUS
 62
    90
100
AcDbCircle
 10
2034.552166
 20
-6.903985
 30
0.0
 40
259.654722
  0
CIRCLE
  5
4924
330
4F8D
100
AcDbEntity
  8
V0-OBRYS
  6
CONTINUOUS
 62
    90
100
AcDbCircle
 10
2034.552166
 20
-6.903985
 30
0.0
 40
255.719741
  0
CIRCLE
  5
4925
330
4F8D
100
AcDbEntity
  8
V0-OBRYS
  6
CONTINUOUS
 62
    90
100
AcDbCircle
 10
2034.552166
 20
-6.903985
 30
0.0
 40
209.680443
  0
CIRCLE
  5
4926
330
4F8D
100
AcDbEntity
  8
V0-OBRYS
  6
CONTINUOUS
 62
    90
100
AcDbCircle
 10
2034.552166
 20
-6.903985
 30
0.0
 40
165.175792
  0
LINE
  5
4927
330
4F8D
100
AcDbEntity
  8
V0-OBRYS
  6
CONTINUOUS
 62
    90
100
AcDbLine
 10
1762.925775
 20
152.608095
 30
0.0
 11
1768.810102
 21
147.273216
 31
0.0
  0
LINE
  5
4928
330
4F8D
100
AcDbEntity
  8
V0-OBRYS
  6
CONTINUOUS
 62
    90
100
AcDbLine
 10
1881.922411
 20
-212.078895
 30
0.0
 11
1898.391226
 21
-171.499696
 31
0.0
  0
ARC
  5
4929
330
4F8D
100
AcDbEntity
  8
VO-OBRYS
  6
CONTINUOUS
100
AcDbCircle
 10
1772.932079
 20
-268.524071
 30
0.0
 40
27.29664
100
AcDbArc
 50
135.0
 51
315.0
  0
ARC
  5
492A
330
4F8D
100
AcDbEntity
  8
VO-OBRYS
  6
CONTINUOUS
100
AcDbCircle
 10
1772.932079
 20
-268.524071
 30
0.0
 40
23.361659
100
AcDbArc
 50
135.0
 51
315.0
  0
LINE
  5
492B
330
4F8D
100
AcDbEntity
  8
V0-OBRYS
  6
CONTINUOUS
 62
    90
100
AcDbLine
 10
1863.535515
 20
-257.384253
 30
0.0
 11
1880.394354
 21
-215.844033
 31
0.0
  0
LINE
  5
492C
330
4F8D
100
AcDbEntity
  8
V0-OBRYS
  6
CONTINUOUS
 62
    90
100
AcDbLine
 10
1859.034941
 20
-268.473677
 30
0.0
 11
1862.021819
 21
-261.114003
 31
0.0
  0
LINE
  5
492D
330
4F8D
100
AcDbEntity
  8
V0-OBRYS
  6
CONTINUOUS
 62
    90
100
AcDbLine
 10
1732.091669
 20
-29.369675
 30
0.0
 11
1775.080434
 21
-16.650543
 31
0.0
  0
ARC
  5
492E
330
4F8D
100
AcDbEntity
  8
V0-OBRYS
  6
CONTINUOUS
 62
    90
100
AcDbCircle
 10
2034.552166
 20
-6.903985
 30
0.0
 40
315.0
100
AcDbArc
 50
184.709219
 51
201.005067
  0
LINE
  5
492F
330
4F8D
100
AcDbEntity
  8
V0-OBRYS
  6
CONTINUOUS
 62
    90
100
AcDbLine
 10
1740.484315
 20
-119.815894
 30
0.0
 11
1748.32411
 21
-118.541585
 31
0.0
  0
LINE
  5
4930
330
4F8D
100
AcDbEntity
  8
V0-OBRYS
  6
CONTINUOUS
 62
    90
100
AcDbLine
 10
1720.615546
 20
-32.765128
 30
0.0
 11
1728.231859
 21
-30.511681
 31
0.0
  0
LINE
  5
4931
330
4F8D
100
AcDbEntity
  8
V0-OBRYS
  6
CONTINUOUS
 62
    90
100
AcDbLine
 10
1800.558103
 20
-110.05128
 30
0.0
 11
1843.784554
 21
-103.025094
 31
0.0
  0
LINE
  5
4932
330
4F8D
100
AcDbEntity
  8
V0-OBRYS
  6
CONTINUOUS
 62
    90
100
AcDbLine
 10
1752.297176
 20
-117.895788
 30
0.0
 11
1796.54734
 21
-110.703204
 31
0.0
  0
LINE
  5
4933
330
4F8D
100
AcDbEntity
  8
V0-OBRYS
  6
CONTINUOUS
 62
    90
100
AcDbLine
 10
1899.944337
 20
-167.672827
 30
0.0
 11
1916.176984
 21
-127.675545
 31
0.0
  0
LINE
  5
4934
330
4F8D
100
AcDbEntity
  8
V0-OBRYS
  6
CONTINUOUS
 62
    90
100
AcDbLine
 10
1847.861074
 20
-102.362481
 30
0.0
 11
1890.467644
 21
-95.43705300000001
 31
0.0
  0
LINE
  5
4935
330
4F8D
100
AcDbEntity
  8
V0-OBRYS
  6
CONTINUOUS
 62
    90
100
AcDbLine
 10
1894.675193
 20
-94.753142
 30
0.0
 11
1928.818252
 21
-89.20340400000001
 31
0.0
  0
LINE
  5
4936
330
4F8D
100
AcDbEntity
  8
V0-OBRYS
  6
CONTINUOUS
 62
    90
100
AcDbLine
 10
1824.931415
 20
-1.90108
 30
0.0
 11
1866.323439
 21
10.345623
 31
0.0
  0
LINE
  5
4937
330
4F8D
100
AcDbEntity
  8
V0-OBRYS
  6
CONTINUOUS
 62
    90
100
AcDbLine
 10
1808.015451
 20
111.728654
 30
0.0
 11
1840.459996
 21
82.313609
 31
0.0
  0
LINE
  5
4938
330
4F8D
100
AcDbEntity
  8
V0-OBRYS
  6
CONTINUOUS
 62
    90
100
AcDbLine
 10
1778.976866
 20
-15.497702
 30
0.0
 11
1820.9711
 21
-3.072823
 31
0.0
  0
LINE
  5
4939
330
4F8D
100
AcDbEntity
  8
V0-OBRYS
  6
CONTINUOUS
 62
    90
100
AcDbLine
 10
1771.792172
 20
144.569595
 30
0.0
 11
1805.005087
 21
114.457926
 31
0.0
  0
LINE
  5
493A
330
4F8D
100
AcDbEntity
  8
V0-OBRYS
  6
CONTINUOUS
 62
    90
100
AcDbLine
 10
1843.519716
 20
79.53958900000001
 30
0.0
 11
1875.498996
 21
50.546366
 31
0.0
  0
LINE
  5
493B
330
4F8D
100
AcDbEntity
  8
V0-OBRYS
  6
CONTINUOUS
 62
    90
100
AcDbLine
 10
1878.657062
 20
47.683183
 30
0.0
 11
1904.283871
 21
24.44927
 31
0.0
  0
LINE
  5
493C
330
4F8D
100
AcDbEntity
  8
V0-OBRYS
  6
CONTINUOUS
 62
    90
100
AcDbLine
 10
1870.411047
 20
11.555028
 30
0.0
 11
1903.580821
 21
21.369004
 31
0.0
  0
LINE
  5
493D
330
4F8D
100
AcDbEntity
  8
V0-OBRYS
  6
CONTINUOUS
 62
    90
100
AcDbLine
 10
1903.580821
 20
21.369004
 30
0.0
 11
1915.417105
 21
10.145745
 31
0.0
  0
LINE
  5
493E
330
4F8D
100
AcDbEntity
  8
V0-OBRYS
  6
CONTINUOUS
 62
    90
100
AcDbLine
 10
1904.283871
 20
24.44927
 30
0.0
 11
1919.817585
 21
29.425506
 31
0.0
  0
ARC
  5
493F
330
4F8D
100
AcDbEntity
  8
VO-OBRYS
  6
CONTINUOUS
100
AcDbCircle
 10
1772.932079
 20
254.716102
 30
0.0
 40
27.29664
100
AcDbArc
 50
45.0
 51
225.0
  0
ARC
  5
4940
330
4F8D
100
AcDbEntity
  8
VO-OBRYS
  6
CONTINUOUS
100
AcDbCircle
 10
1772.932079
 20
254.716102
 30
0.0
 40
23.361659
100
AcDbArc
 50
45.0
 51
225.0
  0
LINE
  5
4941
330
4F8D
100
AcDbEntity
  8
V0-OBRYS
  6
CONTINUOUS
 62
    90
100
AcDbLine
 10
1828.406746
 20
215.562025
 30
0.0
 11
1865.154021
 21
189.882304
 31
0.0
  0
ARC
  5
4942
330
4F8D
100
AcDbEntity
  8
V0-OBRYS
  6
CONTINUOUS
 62
    90
100
AcDbCircle
 10
2034.552166
 20
-6.903985
 30
0.0
 40
315.0
100
AcDbArc
 50
133.280648
 51
149.576495
  0
LINE
  5
4943
330
4F8D
100
AcDbEntity
  8
V0-OBRYS
  6
CONTINUOUS
 62
    90
100
AcDbLine
 10
1818.596829
 20
222.417389
 30
0.0
 11
1825.107338
 21
217.867717
 31
0.0
  0
LINE
  5
4944
330
4F8D
100
AcDbEntity
  8
V0-OBRYS
  6
CONTINUOUS
 62
    90
100
AcDbLine
 10
1868.484734
 20
187.554736
 30
0.0
 11
1904.381872
 21
162.469107
 31
0.0
  0
LINE
  5
4945
330
4F8D
100
AcDbEntity
  8
V0-OBRYS
  6
CONTINUOUS
 62
    90
100
AcDbLine
 10
2306.178557
 20
152.608095
 30
0.0
 11
2300.29423
 21
147.273216
 31
0.0
  0
LINE
  5
4946
330
4F8D
100
AcDbEntity
  8
V0-OBRYS
  6
CONTINUOUS
 62
    90
100
AcDbLine
 10
2161.337138
 20
160.103378
 30
0.0
 11
2125.954776
 21
135.377485
 31
0.0
  0
LINE
  5
4947
330
4F8D
100
AcDbEntity
  8
VO-OBRYS
  6
CONTINUOUS
100
AcDbLine
 10
2107.973762
 20
27.914333
 30
0.0
 11
2315.473892
 21
235.414463
 31
0.0
  0
LINE
  5
4948
330
4F8D
100
AcDbEntity
  8
VO-OBRYS
  6
CONTINUOUS
100
AcDbLine
 10
2069.370484
 20
66.517612
 30
0.0
 11
2276.870613
 21
274.017741
 31
0.0
  0
LINE
  5
4949
330
4F8D
100
AcDbEntity
  8
VO-OBRYS
  6
CONTINUOUS
100
AcDbLine
 10
2073.066055
 20
64.648279
 30
0.0
 11
2279.653065
 21
271.235289
 31
0.0
  0
LINE
  5
494A
330
4F8D
100
AcDbEntity
  8
VO-OBRYS
  6
CONTINUOUS
100
AcDbLine
 10
2106.10443
 20
31.609904
 30
0.0
 11
2312.69144
 21
238.196915
 31
0.0
  0
LINE
  5
494B
330
4F8D
100
AcDbEntity
  8
V0-OBRYS
  6
CONTINUOUS
 62
    90
100
AcDbLine
 10
2297.31216
 20
144.569595
 30
0.0
 11
2264.099245
 21
114.457926
 31
0.0
  0
LINE
  5
494C
330
4F8D
100
AcDbEntity
  8
V0-OBRYS
  6
CONTINUOUS
 62
    90
100
AcDbLine
 10
2316.807156
 20
-117.895788
 30
0.0
 11
2272.556992
 21
-110.703204
 31
0.0
  0
ARC
  5
494D
330
4F8D
100
AcDbEntity
  8
VO-OBRYS
  6
CONTINUOUS
100
AcDbCircle
 10
2296.172253
 20
-268.524071
 30
0.0
 40
23.361659
100
AcDbArc
 50
225.0
 51
45.0
  0
ARC
  5
494E
330
4F8D
100
AcDbEntity
  8
VO-OBRYS
  6
CONTINUOUS
100
AcDbCircle
 10
2296.172253
 20
-268.524071
 30
0.0
 40
27.29664
100
AcDbArc
 50
225.0
 51
45.0
  0
LINE
  5
494F
330
4F8D
100
AcDbEntity
  8
VO-OBRYS
  6
CONTINUOUS
100
AcDbLine
 10
2107.973762
 20
-41.722302
 30
0.0
 11
2315.473892
 21
-249.222432
 31
0.0
  0
LINE
  5
4950
330
4F8D
100
AcDbEntity
  8
VO-OBRYS
  6
CONTINUOUS
100
AcDbLine
 10
2106.10443
 20
-45.417874
 30
0.0
 11
2312.69144
 21
-252.004884
 31
0.0
  0
LINE
  5
4951
330
4F8D
100
AcDbEntity
  8
V0-OBRYS
  6
CONTINUOUS
 62
    90
100
AcDbLine
 10
1992.784632
 20
-212.382357
 30
0.0
 11
2013.934876
 21
-174.753265
 31
0.0
  0
LINE
  5
4952
330
4F8D
100
AcDbEntity
  8
V0-OBRYS
  6
CONTINUOUS
 62
    90
100
AcDbLine
 10
2076.3197
 20
-212.382357
 30
0.0
 11
2055.169456
 21
-174.753265
 31
0.0
  0
LINE
  5
4953
330
4F8D
100
AcDbEntity
  8
VO-OBRYS
  6
CONTINUOUS
100
AcDbLine
 10
2069.370484
 20
-80.325581
 30
0.0
 11
2276.870613
 21
-287.82571
 31
0.0
  0
LINE
  5
4954
330
4F8D
100
AcDbEntity
  8
VO-OBRYS
  6
CONTINUOUS
100
AcDbLine
 10
2073.066055
 20
-78.456248
 30
0.0
 11
2279.653065
 21
-285.043259
 31
0.0
  0
LINE
  5
4955
330
4F8D
100
AcDbEntity
  8
V0-OBRYS
  6
CONTINUOUS
 62
    90
100
AcDbLine
 10
2187.181921
 20
-212.078895
 30
0.0
 11
2170.713106
 21
-171.499696
 31
0.0
  0
LINE
  5
4956
330
4F8D
100
AcDbEntity
  8
V0-OBRYS
  6
CONTINUOUS
 62
    90
100
AcDbLine
 10
2123.758388
 20
-296.782079
 30
0.0
 11
2101.79225
 21
-257.701405
 31
0.0
  0
LINE
  5
4957
330
4F8D
100
AcDbEntity
  8
V0-OBRYS
  6
CONTINUOUS
 62
    90
100
AcDbLine
 10
1945.345944
 20
-296.782079
 30
0.0
 11
1967.312082
 21
-257.701405
 31
0.0
  0
LINE
  5
4958
330
4F8D
100
AcDbEntity
  8
V0-OBRYS
  6
CONTINUOUS
 62
    90
100
AcDbLine
 10
1939.481945
 20
-307.214912
 30
0.0
 11
1943.373683
 21
-300.290995
 31
0.0
  0
LINE
  5
4959
330
4F8D
100
AcDbEntity
  8
V0-OBRYS
  6
CONTINUOUS
 62
    90
100
AcDbLine
 10
1969.303057
 20
-254.159196
 30
0.0
 11
1990.761014
 21
-215.982641
 31
0.0
  0
LINE
  5
495A
330
4F8D
100
AcDbEntity
  8
V0-OBRYS
  6
CONTINUOUS
 62
    90
100
AcDbLine
 10
2099.801275
 20
-254.159196
 30
0.0
 11
2078.343318
 21
-215.982641
 31
0.0
  0
LINE
  5
495B
330
4F8D
100
AcDbEntity
  8
V0-OBRYS
  6
CONTINUOUS
 62
    90
100
AcDbLine
 10
2205.568817
 20
-257.384253
 30
0.0
 11
2188.709978
 21
-215.844033
 31
0.0
  0
ARC
  5
495C
330
4F8D
100
AcDbEntity
  8
V0-OBRYS
  6
CONTINUOUS
 62
    90
100
AcDbCircle
 10
2034.552166
 20
-6.903985
 30
0.0
 40
315.0
100
AcDbArc
 50
287.566362
 51
303.86221
  0
LINE
  5
495D
330
4F8D
100
AcDbEntity
  8
V0-OBRYS
  6
CONTINUOUS
 62
    90
100
AcDbLine
 10
2129.622387
 20
-307.214912
 30
0.0
 11
2125.73065
 21
-300.290995
 31
0.0
  0
LINE
  5
495E
330
4F8D
100
AcDbEntity
  8
V0-OBRYS
  6
CONTINUOUS
 62
    90
100
AcDbLine
 10
2210.069391
 20
-268.473677
 30
0.0
 11
2207.082513
 21
-261.114003
 31
0.0
  0
LINE
  5
495F
330
4F8D
100
AcDbEntity
  8
V0-OBRYS
  6
CONTINUOUS
 62
    90
100
AcDbLine
 10
2122.460643
 20
132.935716
 30
0.0
 11
2094.106751
 21
113.121457
 31
0.0
  0
LINE
  5
4960
330
4F8D
100
AcDbEntity
  8
V0-OBRYS
  6
CONTINUOUS
 62
    90
100
AcDbLine
 10
2095.062906
 20
94.339535
 30
0.0
 11
2112.705811
 21
123.858754
 31
0.0
  0
LINE
  5
4963
330
4F8D
100
AcDbEntity
  8
V0-OBRYS
  6
CONTINUOUS
 62
    90
100
AcDbLine
 10
2095.062906
 20
-108.147505
 30
0.0
 11
2112.705811
 21
-137.666723
 31
0.0
  0
LINE
  5
4968
330
4F8D
100
AcDbEntity
  8
V0-OBRYS
  6
CONTINUOUS
 62
    90
100
AcDbLine
 10
2016.023537
 20
-171.03726
 30
0.0
 11
2032.972426
 21
-140.882936
 31
0.0
  0
ARC
  5
4969
330
4F8D
100
AcDbEntity
  8
V0-OBRYS
  6
CONTINUOUS
 62
    90
100
AcDbCircle
 10
2034.552166
 20
-6.903985
 30
0.0
 40
118.467545
100
AcDbArc
 50
238.716649
 51
301.283351
  0
LINE
  5
496A
330
4F8D
100
AcDbEntity
  8
V0-OBRYS
  6
CONTINUOUS
 62
    90
100
AcDbLine
 10
2015.446714
 20
-85.885171
 30
0.0
 11
1999.093087
 21
-153.490422
 31
0.0
  0
LINE
  5
496B
330
4F8D
100
AcDbEntity
  8
V0-OBRYS
  6
CONTINUOUS
 62
    90
100
AcDbLine
 10
1977.745804
 20
-145.922568
 30
0.0
 11
2003.814865
 21
-82.12542000000001
 31
0.0
  0
LINE
  5
496C
330
4F8D
100
AcDbEntity
  8
V0-OBRYS
  6
CONTINUOUS
 62
    90
100
AcDbLine
 10
1974.041426
 20
-108.147505
 30
0.0
 11
1956.398521
 21
-137.666723
 31
0.0
  0
LINE
  5
4970
330
4F8D
100
AcDbEntity
  8
V0-OBRYS
  6
CONTINUOUS
 62
    90
100
AcDbLine
 10
2053.657618
 20
-85.885171
 30
0.0
 11
2070.011245
 21
-153.490422
 31
0.0
  0
LINE
  5
4971
330
4F8D
100
AcDbEntity
  8
V0-OBRYS
  6
CONTINUOUS
 62
    90
100
AcDbLine
 10
2045.909479
 20
-156.242372
 30
0.0
 11
2040.714198
 21
-87.929138
 31
0.0
  0
LINE
  5
4972
330
4F8D
100
AcDbEntity
  8
V0-OBRYS
  6
CONTINUOUS
 62
    90
100
AcDbLine
 10
2023.194853
 20
-156.242372
 30
0.0
 11
2026.852509
 21
-108.147505
 31
0.0
  0
LINE
  5
4973
330
4F8D
100
AcDbEntity
  8
V0-OBRYS
  6
CONTINUOUS
 62
    90
100
AcDbLine
 10
2091.358528
 20
-145.922568
 30
0.0
 11
2065.289467
 21
-82.12542000000001
 31
0.0
  0
LINE
  5
4974
330
4F8D
100
AcDbEntity
  8
V0-OBRYS
  6
CONTINUOUS
 62
    90
100
AcDbLine
 10
2053.080795
 20
-171.03726
 30
0.0
 11
2036.131906
 21
-140.882936
 31
0.0
  0
LINE
  5
4975
330
4F8D
100
AcDbEntity
  8
V0-OBRYS
  6
CONTINUOUS
 62
    90
100
AcDbLine
 10
2036.131906
 20
-140.882936
 30
0.0
 11
2044.439954
 21
-126.846002
 31
0.0
  0
LINE
  5
4976
330
4F8D
100
AcDbEntity
  8
V0-OBRYS
  6
CONTINUOUS
 62
    90
100
AcDbLine
 10
2032.972426
 20
-140.882936
 30
0.0
 11
2024.664378
 21
-126.846002
 31
0.0
  0
ARC
  5
4977
330
4F8D
100
AcDbEntity
  8
V0-OBRYS
  6
CONTINUOUS
 62
    90
100
AcDbCircle
 10
2034.552166
 20
-6.903985
 30
0.0
 40
118.467545
100
AcDbArc
 50
58.71664899999999
 51
121.283351
  0
LINE
  5
4979
330
4F8D
100
AcDbEntity
  8
V0-OBRYS
  6
CONTINUOUS
 62
    90
100
AcDbLine
 10
1974.041426
 20
94.339535
 30
0.0
 11
1956.398521
 21
123.858754
 31
0.0
  0
LINE
  5
497A
330
4F8D
100
AcDbEntity
  8
V0-OBRYS
  6
CONTINUOUS
 62
    90
100
AcDbLine
 10
1974.041426
 20
94.339535
 30
0.0
 11
1956.398521
 21
123.858754
 31
0.0
  0
LINE
  5
497B
330
4F8D
100
AcDbEntity
  8
V0-OBRYS
  6
CONTINUOUS
 62
    90
100
AcDbLine
 10
1974.997581
 20
113.121457
 30
0.0
 11
1973.602686
 21
96.869889
 31
0.0
  0
LINE
  5
497D
330
4F8D
100
AcDbEntity
  8
V0-OBRYS
  6
CONTINUOUS
 62
    90
100
AcDbLine
 10
1946.643689
 20
132.935716
 30
0.0
 11
1974.997581
 21
113.121457
 31
0.0
  0
LINE
  5
497E
330
4F8D
100
AcDbEntity
  8
V0-OBRYS
  6
CONTINUOUS
 62
    90
100
AcDbLine
 10
2010.061483
 20
94.339535
 30
0.0
 11
1999.093087
 21
139.682453
 31
0.0
  0
LINE
  5
497F
330
4F8D
100
AcDbEntity
  8
V0-OBRYS
  6
CONTINUOUS
 62
    90
100
AcDbLine
 10
2015.446714
 20
72.077202
 30
0.0
 11
1999.093087
 21
139.682453
 31
0.0
  0
LINE
  5
4980
330
4F8D
100
AcDbEntity
  8
V0-OBRYS
  6
CONTINUOUS
 62
    90
100
AcDbLine
 10
1977.745804
 20
132.114599
 30
0.0
 11
1993.18161
 21
94.339535
 31
0.0
  0
LINE
  5
4981
330
4F8D
100
AcDbEntity
  8
V0-OBRYS
  6
CONTINUOUS
 62
    90
100
AcDbLine
 10
1977.745804
 20
132.114599
 30
0.0
 11
2003.814865
 21
68.31745100000001
 31
0.0
  0
LINE
  5
4982
330
4F8D
100
AcDbEntity
  8
V0-OBRYS
  6
CONTINUOUS
 62
    90
100
AcDbLine
 10
1977.844174
 20
114.492304
 30
0.0
 11
1991.419864
 21
105.45019
 31
0.0
  0
LINE
  5
4983
330
4F8D
100
AcDbEntity
  8
V0-OBRYS
  6
CONTINUOUS
 62
    90
100
AcDbLine
 10
1980.031125
 20
149.014258
 30
0.0
 11
1977.844174
 21
114.492304
 31
0.0
  0
LINE
  5
4984
330
4F8D
100
AcDbEntity
  8
V0-OBRYS
  6
CONTINUOUS
 62
    90
100
AcDbLine
 10
2053.657618
 20
72.077202
 30
0.0
 11
2070.011245
 21
139.682453
 31
0.0
  0
LINE
  5
4985
330
4F8D
100
AcDbEntity
  8
V0-OBRYS
  6
CONTINUOUS
 62
    90
100
AcDbLine
 10
2023.194853
 20
142.434403
 30
0.0
 11
2026.852509
 21
94.339535
 31
0.0
  0
LINE
  5
4986
330
4F8D
100
AcDbEntity
  8
V0-OBRYS
  6
CONTINUOUS
 62
    90
100
AcDbLine
 10
2023.194853
 20
142.434403
 30
0.0
 11
2028.390134
 21
74.121168
 31
0.0
  0
LINE
  5
4987
330
4F8D
100
AcDbEntity
  8
V0-OBRYS
  6
CONTINUOUS
 62
    90
100
AcDbLine
 10
2045.909479
 20
142.434403
 30
0.0
 11
2040.714198
 21
74.121168
 31
0.0
  0
LINE
  5
4988
330
4F8D
100
AcDbEntity
  8
V0-OBRYS
  6
CONTINUOUS
 62
    90
100
AcDbLine
 10
2094.106751
 20
113.121457
 30
0.0
 11
2095.501646
 21
96.869889
 31
0.0
  0
LINE
  5
4989
330
4F8D
100
AcDbEntity
  8
V0-OBRYS
  6
CONTINUOUS
 62
    90
100
AcDbLine
 10
2091.358528
 20
132.114599
 30
0.0
 11
2065.289467
 21
68.31745100000001
 31
0.0
  0
LINE
  5
498A
330
4F8D
100
AcDbEntity
  8
V0-OBRYS
  6
CONTINUOUS
 62
    90
100
AcDbLine
 10
2091.260158
 20
114.492304
 30
0.0
 11
2077.684468
 21
105.45019
 31
0.0
  0
LINE
  5
498B
330
4F8D
100
AcDbEntity
  8
V0-OBRYS
  6
CONTINUOUS
 62
    90
100
AcDbLine
 10
2089.073207
 20
149.014258
 30
0.0
 11
2091.260158
 21
114.492304
 31
0.0
  0
ARC
  5
498D
330
4F8D
100
AcDbEntity
  8
V0-OBRYS
  6
CONTINUOUS
 62
    90
100
AcDbCircle
 10
2034.552166
 20
-6.903985
 30
0.0
 40
118.467545
100
AcDbArc
 50
328.716649
 51
31.283351
  0
LINE
  5
498E
330
4F8D
100
AcDbEntity
  8
V0-OBRYS
  6
CONTINUOUS
 62
    90
100
AcDbLine
 10
2221.243258
 20
-102.362481
 30
0.0
 11
2178.636688
 21
-95.43705300000001
 31
0.0
  0
LINE
  5
498F
330
4F8D
100
AcDbEntity
  8
V0-OBRYS
  6
CONTINUOUS
 62
    90
100
AcDbLine
 10
2151.324317
 20
-123.725673
 30
0.0
 11
2138.316177
 21
-91.673585
 31
0.0
  0
LINE
  5
4990
330
4F8D
100
AcDbEntity
  8
V0-OBRYS
  6
CONTINUOUS
 62
    90
100
AcDbLine
 10
2169.159995
 20
-167.672827
 30
0.0
 11
2152.927348
 21
-127.675545
 31
0.0
  0
LINE
  5
4991
330
4F8D
100
AcDbEntity
  8
V0-OBRYS
  6
CONTINUOUS
 62
    90
100
AcDbLine
 10
2173.570749
 20
-63.710346
 30
0.0
 11
2109.773602
 21
-37.641286
 31
0.0
  0
LINE
  5
4992
330
4F8D
100
AcDbEntity
  8
V0-OBRYS
  6
CONTINUOUS
 62
    90
100
AcDbLine
 10
2174.429139
 20
-94.753142
 30
0.0
 11
2140.28608
 21
-89.20340400000001
 31
0.0
  0
LINE
  5
4993
330
4F8D
100
AcDbEntity
  8
V0-OBRYS
  6
CONTINUOUS
 62
    90
100
AcDbLine
 10
2135.795686
 20
-67.41472400000001
 30
0.0
 11
2165.314905
 21
-85.05762900000001
 31
0.0
  0
LINE
  5
4994
330
4F8D
100
AcDbEntity
  8
V0-OBRYS
  6
CONTINUOUS
 62
    90
100
AcDbLine
 10
2113.533352
 20
-26.009436
 30
0.0
 11
2181.138604
 21
-42.363064
 31
0.0
  0
LINE
  5
4996
330
4F8D
100
AcDbEntity
  8
V0-OBRYS
  6
CONTINUOUS
 62
    90
100
AcDbLine
 10
2138.316177
 20
-91.673585
 30
0.0
 11
2122.161677
 21
-89.417193
 31
0.0
  0
LINE
  5
4997
330
4F8D
100
AcDbEntity
  8
V0-OBRYS
  6
CONTINUOUS
 62
    90
100
AcDbLine
 10
2140.28608
 20
-89.20340400000001
 30
0.0
 11
2134.491547
 21
-73.95602599999999
 31
0.0
  0
LINE
  5
4998
330
4F8D
100
AcDbEntity
  8
V0-OBRYS
  6
CONTINUOUS
 62
    90
100
AcDbLine
 10
2268.546229
 20
-110.05128
 30
0.0
 11
2225.319778
 21
-103.025094
 31
0.0
  0
LINE
  5
4999
330
4F8D
100
AcDbEntity
  8
V0-OBRYS
  6
CONTINUOUS
 62
    90
100
AcDbLine
 10
2225.584616
 20
79.53958900000001
 30
0.0
 11
2193.605336
 21
50.546366
 31
0.0
  0
LINE
  5
499A
330
4F8D
100
AcDbEntity
  8
V0-OBRYS
  6
CONTINUOUS
 62
    90
100
AcDbLine
 10
2135.795686
 20
53.606755
 30
0.0
 11
2165.314905
 21
71.24966000000001
 31
0.0
  0
LINE
  5
499B
330
4F8D
100
AcDbEntity
  8
V0-OBRYS
  6
CONTINUOUS
 62
    90
100
AcDbLine
 10
2173.570749
 20
49.902377
 30
0.0
 11
2109.773602
 21
23.833317
 31
0.0
  0
LINE
  5
499C
330
4F8D
100
AcDbEntity
  8
V0-OBRYS
  6
CONTINUOUS
 62
    90
100
AcDbLine
 10
2164.820461
 20
24.44927
 30
0.0
 11
2149.286747
 21
29.425506
 31
0.0
  0
LINE
  5
499D
330
4F8D
100
AcDbEntity
  8
V0-OBRYS
  6
CONTINUOUS
 62
    90
100
AcDbLine
 10
2165.523511
 20
21.369004
 30
0.0
 11
2153.687227
 21
10.145745
 31
0.0
  0
LINE
  5
499E
330
4F8D
100
AcDbEntity
  8
V0-OBRYS
  6
CONTINUOUS
 62
    90
100
AcDbLine
 10
2113.533352
 20
12.201467
 30
0.0
 11
2181.138604
 21
28.555095
 31
0.0
  0
LINE
  5
499F
330
4F8D
100
AcDbEntity
  8
V0-OBRYS
  6
CONTINUOUS
 62
    90
100
AcDbLine
 10
2183.890554
 20
4.453328
 30
0.0
 11
2115.577319
 21
-0.7419520000000004
 31
0.0
  0
LINE
  5
49A0
330
4F8D
100
AcDbEntity
  8
V0-OBRYS
  6
CONTINUOUS
 62
    90
100
AcDbLine
 10
2183.890554
 20
-18.261297
 30
0.0
 11
2115.577319
 21
-13.066017
 31
0.0
  0
LINE
  5
49A1
330
4F8D
100
AcDbEntity
  8
V0-OBRYS
  6
CONTINUOUS
 62
    90
100
AcDbLine
 10
2198.693285
 20
11.555028
 30
0.0
 11
2165.523511
 21
21.369004
 31
0.0
  0
LINE
  5
49A2
330
4F8D
100
AcDbEntity
  8
V0-OBRYS
  6
CONTINUOUS
 62
    90
100
AcDbLine
 10
2190.44727
 20
47.683183
 30
0.0
 11
2164.820461
 21
24.44927
 31
0.0
  0
LINE
  5
49A4
330
4F8D
100
AcDbEntity
  8
V0-OBRYS
  6
CONTINUOUS
 62
    90
100
AcDbLine
 10
2244.172917
 20
-1.90108
 30
0.0
 11
2202.780893
 21
10.345623
 31
0.0
  0
LINE
  5
49A5
330
4F8D
100
AcDbEntity
  8
V0-OBRYS
  6
CONTINUOUS
 62
    90
100
AcDbLine
 10
2290.127466
 20
-15.497702
 30
0.0
 11
2248.133232
 21
-3.072823
 31
0.0
  0
LINE
  5
49A6
330
4F8D
100
AcDbEntity
  8
V0-OBRYS
  6
CONTINUOUS
 62
    90
100
AcDbLine
 10
2261.088881
 20
111.728654
 30
0.0
 11
2228.644336
 21
82.313609
 31
0.0
  0
LINE
  5
49A7
330
4F8D
100
AcDbEntity
  8
V0-OBRYS
  6
CONTINUOUS
 62
    90
100
AcDbLine
 10
2337.012663
 20
-29.369675
 30
0.0
 11
2294.023898
 21
-16.650543
 31
0.0
  0
ARC
  5
49A8
330
4F8D
100
AcDbEntity
  8
V0-OBRYS
  6
CONTINUOUS
 62
    90
100
AcDbCircle
 10
2034.552166
 20
-6.903985
 30
0.0
 40
315.0
100
AcDbArc
 50
338.994933
 51
355.290781
  0
LINE
  5
49A9
330
4F8D
100
AcDbEntity
  8
V0-OBRYS
  6
CONTINUOUS
 62
    90
100
AcDbLine
 10
2328.620017
 20
-119.815894
 30
0.0
 11
2320.780222
 21
-118.541585
 31
0.0
  0
LINE
  5
49AA
330
4F8D
100
AcDbEntity
  8
V0-OBRYS
  6
CONTINUOUS
 62
    90
100
AcDbLine
 10
2348.488786
 20
-32.765128
 30
0.0
 11
2340.872473
 21
-30.511681
 31
0.0
  0
ARC
  5
49AB
330
4F8D
100
AcDbEntity
  8
VO-OBRYS
  6
CONTINUOUS
100
AcDbCircle
 10
2296.172253
 20
254.716102
 30
0.0
 40
27.29664
100
AcDbArc
 50
315.0
 51
135.0
  0
ARC
  5
49AC
330
4F8D
100
AcDbEntity
  8
VO-OBRYS
  6
CONTINUOUS
100
AcDbCircle
 10
2296.172253
 20
254.716102
 30
0.0
 40
23.361659
100
AcDbArc
 50
315.0
 51
135.0
  0
ARC
  5
49AD
330
4F8D
100
AcDbEntity
  8
V0-OBRYS
  6
CONTINUOUS
 62
    90
100
AcDbCircle
 10
2034.552166
 20
-6.903985
 30
0.0
 40
315.0
100
AcDbArc
 50
30.423505
 51
46.719352
  0
ARC
  5
49AE
330
4F8D
100
AcDbEntity
  8
V0-OBRYS
  6
CONTINUOUS
 62
    90
100
AcDbCircle
 10
2034.552166
 20
-6.903985
 30
0.0
 40
315.0
100
AcDbArc
 50
81.852076
 51
98.147924
  0
LINE
  5
49AF
330
4F8D
100
AcDbEntity
  8
V0-OBRYS
  6
CONTINUOUS
 62
    90
100
AcDbLine
 10
1986.059566
 20
244.175791
 30
0.0
 11
1983.290801
 21
200.469645
 31
0.0
  0
LINE
  5
49B0
330
4F8D
100
AcDbEntity
  8
V0-OBRYS
  6
CONTINUOUS
 62
    90
100
AcDbLine
 10
1983.029689
 20
196.347885
 30
0.0
 11
1980.300629
 21
153.268498
 31
0.0
  0
LINE
  5
49B1
330
4F8D
100
AcDbEntity
  8
V0-OBRYS
  6
CONTINUOUS
 62
    90
100
AcDbLine
 10
1989.150803
 20
292.972283
 30
0.0
 11
1986.316466
 21
248.231062
 31
0.0
  0
LINE
  5
49B2
330
4F8D
100
AcDbEntity
  8
V0-OBRYS
  6
CONTINUOUS
 62
    90
100
AcDbLine
 10
1989.907447
 20
304.916235
 30
0.0
 11
1989.405288
 21
296.98944
 31
0.0
  0
LINE
  5
49B3
330
4F8D
100
AcDbEntity
  8
V0-OBRYS
  6
CONTINUOUS
 62
    90
100
AcDbLine
 10
2083.044766
 20
244.175791
 30
0.0
 11
2085.813531
 21
200.469645
 31
0.0
  0
LINE
  5
49B4
330
4F8D
100
AcDbEntity
  8
V0-OBRYS
  6
CONTINUOUS
 62
    90
100
AcDbLine
 10
2086.074643
 20
196.347885
 30
0.0
 11
2088.803703
 21
153.268498
 31
0.0
  0
LINE
  5
49B5
330
4F8D
100
AcDbEntity
  8
V0-OBRYS
  6
CONTINUOUS
 62
    90
100
AcDbLine
 10
2079.953529
 20
292.972283
 30
0.0
 11
2082.787866
 21
248.231062
 31
0.0
  0
LINE
  5
49B6
330
4F8D
100
AcDbEntity
  8
V0-OBRYS
  6
CONTINUOUS
 62
    90
100
AcDbLine
 10
2079.196885
 20
304.916235
 30
0.0
 11
2079.699044
 21
296.98944
 31
0.0
  0
LINE
  5
49B7
330
4F8D
100
AcDbEntity
  8
V0-OBRYS
  6
CONTINUOUS
 62
    90
100
AcDbLine
 10
2200.619598
 20
187.554736
 30
0.0
 11
2164.72246
 21
162.469107
 31
0.0
  0
LINE
  5
49B8
330
4F8D
100
AcDbEntity
  8
V0-OBRYS
  6
CONTINUOUS
 62
    90
100
AcDbLine
 10
2250.507503
 20
222.417389
 30
0.0
 11
2243.996994
 21
217.867717
 31
0.0
  0
LINE
  5
49B9
330
4F8D
100
AcDbEntity
  8
V0-OBRYS
  6
CONTINUOUS
 62
    90
100
AcDbLine
 10
2240.697586
 20
215.562025
 30
0.0
 11
2203.950311
 21
189.882304
 31
0.0
  0
CIRCLE
  5
49BA
330
4F8D
100
AcDbEntity
  8
V0-OBRYS
  6
CONTINUOUS
 62
    90
100
AcDbCircle
 10
1772.932079
 20
254.716102
 30
0.0
 40
12.627151
  0
LINE
  5
49BB
330
4F8D
100
AcDbEntity
  8
V0-VYPLNE
  6
DASHDOT
 62
    63
100
AcDbLine
 10
2034.552166
 20
-6.903985
 30
0.0
 11
1740.208702
 21
287.43948
 31
0.0
  0
CIRCLE
  5
49BC
330
4F8D
100
AcDbEntity
  8
V0-OBRYS
  6
CONTINUOUS
 62
    90
100
AcDbCircle
 10
1772.932079
 20
-268.524071
 30
0.0
 40
12.627151
  0
LINE
  5
49BD
330
4F8D
100
AcDbEntity
  8
V0-VYPLNE
  6
DASHDOT
 62
    63
100
AcDbLine
 10
2034.552166
 20
-6.903985
 30
0.0
 11
1740.208702
 21
-301.247449
 31
0.0
  0
CIRCLE
  5
49BE
330
4F8D
100
AcDbEntity
  8
V0-OBRYS
  6
CONTINUOUS
 62
    90
100
AcDbCircle
 10
2296.172253
 20
-268.524071
 30
0.0
 40
12.627151
  0
LINE
  5
49BF
330
4F8D
100
AcDbEntity
  8
V0-VYPLNE
  6
DASHDOT
 62
    63
100
AcDbLine
 10
2034.552166
 20
-6.903985
 30
0.0
 11
2328.89563
 21
-301.247449
 31
0.0
  0
CIRCLE
  5
49C0
330
4F8D
100
AcDbEntity
  8
V0-OBRYS
  6
CONTINUOUS
 62
    90
100
AcDbCircle
 10
2296.172253
 20
254.716102
 30
0.0
 40
12.627151
  0
LINE
  5
49C1
330
4F8D
100
AcDbEntity
  8
V0-VYPLNE
  6
DASHDOT
 62
    63
100
AcDbLine
 10
2034.552166
 20
-6.903985
 30
0.0
 11
2328.89563
 21
287.43948
 31
0.0
  0
INSERT
  5
49D7
330
4F8D
100
AcDbEntity
  8
V0-OBRYS
  6
CONTINUOUS
 62
    90
100
AcDbBlockReference
  2
ASVORKBOK
 10
2034.552166
 20
-6.903985
 30
0.0
  0
CIRCLE
  5
49D8
330
4F8D
100
AcDbEntity
  8
V0-OBRYS
  6
CONTINUOUS
 62
    90
100
AcDbCircle
 10
2034.552166
 20
-6.903985
 30
0.0
 40
81.259129
  0
LINE
  5
49E8
330
4F8D
100
AcDbEntity
  8
0
  6
BYBLOCK
 62
    41
100
AcDbLine
 10
1248.321191
 20
-412.000907
 30
0.0
 11
1248.321191
 21
-453.699243
 31
0.0
  0
LINE
  5
49E9
330
4F8D
100
AcDbEntity
  8
0
  6
BYBLOCK
 62
    41
100
AcDbLine
 10
1236.721191
 20
-412.000907
 30
0.0
 11
1236.721191
 21
-453.699243
 31
0.0
  0
LINE
  5
49EA
330
4F8D
100
AcDbEntity
  8
0
  6
BYBLOCK
 62
    41
100
AcDbLine
 10
1288.321191
 20
-452.449243
 30
0.0
 11
1328.321191
 21
-452.449243
 31
0.0
  0
LINE
  5
49EB
330
4F8D
100
AcDbEntity
  8
0
  6
BYBLOCK
 62
    41
100
AcDbLine
 10
1225.721191
 20
-452.449243
 30
0.0
 11
1177.318829
 21
-452.449243
 31
0.0
  0
LINE
  5
49EC
330
4F8D
100
AcDbEntity
  8
0
  6
BYBLOCK
 62
    41
100
AcDbLine
 10
1248.321191
 20
-452.449243
 30
0.0
 11
1236.721191
 21
-452.449243
 31
0.0
  0
INSERT
  5
49ED
330
4F8D
100
AcDbEntity
  8
0
  6
BYBLOCK
 62
    41
100
AcDbBlockReference
  2
_OPEN
 10
1248.321191
 20
-452.449243
 30
0.0
 41
40.0
 42
40.0
 43
40.0
 50
180.0
  0
INSERT
  5
49EE
330
4F8D
100
AcDbEntity
  8
0
  6
BYBLOCK
 62
    41
100
AcDbBlockReference
  2
_OPEN
 10
1236.721191
 20
-452.449243
 30
0.0
 41
40.0
 42
40.0
 43
40.0
  0
POINT
  5
49F0
330
4F8D
100
AcDbEntity
  8
DEFPOINTS
  6
BYBLOCK
 62
     0
100
AcDbPoint
 10
1248.321191
 20
-411.000907
 30
0.0
  0
POINT
  5
49F1
330
4F8D
100
AcDbEntity
  8
DEFPOINTS
  6
BYBLOCK
 62
     0
100
AcDbPoint
 10
1236.721191
 20
-411.000907
 30
0.0
  0
POINT
  5
49F2
330
4F8D
100
AcDbEntity
  8
DEFPOINTS
  6
BYBLOCK
 62
     0
100
AcDbPoint
 10
1236.721191
 20
-452.449243
 30
0.0
  0
LINE
  5
4A16
330
4F8D
100
AcDbEntity
  8
V0-OBRYS
  6
CONTINUOUS
 62
    90
100
AcDbLine
 10
1235.203809
 20
-1325.940036
 30
0.0
 11
1220.76297
 21
-1395.188033
 31
0.0
  0
LINE
  5
4A17
330
4F8D
100
AcDbEntity
  8
V0-OBRYS
  6
CONTINUOUS
 62
    90
100
AcDbLine
 10
1237.955318
 20
-1326.51383
 30
0.0
 11
1223.514479
 21
-1395.761827
 31
0.0
  0
LINE
  5
4A18
330
4F8D
100
AcDbEntity
  8
V0-OBRYS
  6
CONTINUOUS
 62
    90
100
AcDbLine
 10
1220.284477
 20
-1072.514895
 30
0.0
 11
1234.859921
 21
-1141.657322
 31
0.0
  0
LINE
  5
4A19
330
4F8D
100
AcDbEntity
  8
V0-OBRYS
  6
CONTINUOUS
 62
    90
100
AcDbLine
 10
1223.034735
 20
-1071.935132
 30
0.0
 11
1237.610178
 21
-1141.077559
 31
0.0
  0
LINE
  5
4A1A
330
4F8D
100
AcDbEntity
  8
V0-OBRYS
  6
CONTINUOUS
 62
    90
 48
2.0
100
AcDbLine
 10
1207.29963
 20
-1323.911929
 30
0.0
 11
1236.72115
 21
-1323.911929
 31
0.0
  0
LINE
  5
4A1B
330
4F8D
100
AcDbEntity
  8
V0-OBRYS
  6
CONTINUOUS
 62
    90
 48
2.0
100
AcDbLine
 10
1207.29963
 20
-1143.910489
 30
0.0
 11
1236.72115
 21
-1143.910489
 31
0.0
  0
LINE
  5
4A1C
330
4F8D
100
AcDbEntity
  8
V0-OBRYS
  6
CONTINUOUS
 62
    90
 48
2.0
100
AcDbLine
 10
1221.257965
 20
-1318.395972
 30
0.0
 11
1236.72115
 21
-1318.395972
 31
0.0
  0
LINE
  5
4A1D
330
4F8D
100
AcDbEntity
  8
V0-OBRYS
  6
CONTINUOUS
 62
    90
 48
2.0
100
AcDbLine
 10
1221.257965
 20
-1283.552962
 30
0.0
 11
1236.72115
 21
-1283.552962
 31
0.0
  0
LINE
  5
4A1E
330
4F8D
100
AcDbEntity
  8
V0-OBRYS
  6
CONTINUOUS
 62
    90
 48
2.0
100
AcDbLine
 10
1220.499806
 20
-1302.48938
 30
0.0
 11
1236.72115
 21
-1302.48938
 31
0.0
  0
LINE
  5
4A1F
330
4F8D
100
AcDbEntity
  8
V0-OBRYS
  6
CONTINUOUS
 62
    90
 48
2.0
100
AcDbLine
 10
1225.048742
 20
-1265.374005
 30
0.0
 11
1236.72115
 21
-1265.374005
 31
0.0
  0
LINE
  5
4A20
330
4F8D
100
AcDbEntity
  8
V0-OBRYS
  6
CONTINUOUS
 62
    90
 48
2.0
100
AcDbLine
 10
1220.499806
 20
-1247.195043
 30
0.0
 11
1236.72115
 21
-1247.195043
 31
0.0
  0
LINE
  5
4A21
330
4F8D
100
AcDbEntity
  8
V0-OBRYS
  6
CONTINUOUS
 62
    90
 48
2.0
100
AcDbLine
 10
1220.499806
 20
-1220.627375
 30
0.0
 11
1236.72115
 21
-1220.627375
 31
0.0
  0
LINE
  5
4A22
330
4F8D
100
AcDbEntity
  8
V0-OBRYS
  6
CONTINUOUS
 62
    90
 48
2.0
100
AcDbLine
 10
1225.048742
 20
-1202.448414
 30
0.0
 11
1236.72115
 21
-1202.448414
 31
0.0
  0
LINE
  5
4A23
330
4F8D
100
AcDbEntity
  8
V0-OBRYS
  6
CONTINUOUS
 62
    90
 48
2.0
100
AcDbLine
 10
1221.257965
 20
-1184.269456
 30
0.0
 11
1236.72115
 21
-1184.269456
 31
0.0
  0
LINE
  5
4A24
330
4F8D
100
AcDbEntity
  8
V0-OBRYS
  6
CONTINUOUS
 62
    90
 48
2.0
100
AcDbLine
 10
1220.499806
 20
-1165.333038
 30
0.0
 11
1236.72115
 21
-1165.333038
 31
0.0
  0
LINE
  5
4A25
330
4F8D
100
AcDbEntity
  8
V0-OBRYS
  6
CONTINUOUS
 62
    90
 48
2.0
100
AcDbLine
 10
1221.257965
 20
-1149.426446
 30
0.0
 11
1236.72115
 21
-1149.426446
 31
0.0
  0
LINE
  5
4A26
330
4F8D
100
AcDbEntity
  8
V0-OBRYS
  6
CONTINUOUS
 62
    90
100
AcDbLine
 10
1224.045393
 20
-963.758563
 30
0.0
 11
1236.461091
 21
-895.612116
 31
0.0
  0
LINE
  5
4A27
330
4F8D
100
AcDbEntity
  8
V0-OBRYS
  6
CONTINUOUS
 62
    90
100
AcDbLine
 10
1221.784836
 20
-962.087682
 30
0.0
 11
1233.962492
 21
-895.112804
 31
0.0
  0
LINE
  5
4A28
330
4F8D
100
AcDbEntity
  8
V0-OBRYS
  6
CONTINUOUS
 62
    90
100
AcDbLine
 10
1223.769216
 20
-1509.626974
 30
0.0
 11
1233.684874
 21
-1572.459569
 31
0.0
  0
LINE
  5
4A29
330
4F8D
100
AcDbEntity
  8
V0-OBRYS
  6
CONTINUOUS
 62
    90
100
AcDbLine
 10
1224.080285
 20
-1504.112467
 30
0.0
 11
1236.815059
 21
-1571.322247
 31
0.0
  0
LINE
  5
4A2A
330
4F8D
100
AcDbEntity
  8
V0-VYPLNE
  6
DASHDOT
 62
    63
100
AcDbLine
 10
1220.917908
 20
-1233.911315
 30
0.0
 11
1369.902694
 21
-1233.911315
 31
0.0
  0
LINE
  5
4A2B
330
4F8D
100
AcDbEntity
  8
V0-OBRYS
  6
CONTINUOUS
 62
    90
 48
2.0
100
AcDbLine
 10
1222.901635
 20
-1500.479174
 30
0.0
 11
1222.901635
 21
-1397.163952
 31
0.0
  0
LINE
  5
4A2C
330
4F8D
100
AcDbEntity
  8
V0-OBRYS
  6
CONTINUOUS
 62
    90
 48
2.0
100
AcDbLine
 10
1220.090934
 20
-1500.479174
 30
0.0
 11
1220.090934
 21
-1397.163952
 31
0.0
  0
CIRCLE
  5
4A2D
330
4F8D
100
AcDbEntity
  8
V0-OBRYS
  6
CONTINUOUS
 62
    90
 48
2.0
100
AcDbCircle
 10
1217.195912
 20
-1471.732542
 30
0.0
 40
2.894689
  0
ARC
  5
4A2E
330
4F8D
100
AcDbEntity
  8
V0-OBRYS
  6
CONTINUOUS
 62
    90
 48
2.0
100
AcDbCircle
 10
1233.534701
 20
-1500.386914
 30
0.0
 40
13.444084
100
AcDbArc
 50
180.393192
 51
223.416411
  0
ARC
  5
4A2F
330
4F8D
100
AcDbEntity
  8
V0-OBRYS
  6
CONTINUOUS
 62
    90
 48
2.0
100
AcDbCircle
 10
1229.090934
 20
-1500.479174
 30
0.0
 40
6.189299
100
AcDbArc
 50
180.0
 51
215.946405
  0
CIRCLE
  5
4A30
330
4F8D
100
AcDbEntity
  8
V0-OBRYS
  6
CONTINUOUS
 62
    90
 48
2.0
100
AcDbCircle
 10
1217.195912
 20
-1493.332542
 30
0.0
 40
2.894689
  0
LINE
  5
4A31
330
4F8D
100
AcDbEntity
  8
V0-OBRYS
  6
CONTINUOUS
 62
    90
 48
2.0
100
AcDbLine
 10
1221.257965
 20
-1283.552962
 30
0.0
 11
1193.931724
 21
-1276.735852
 31
0.0
  0
LINE
  5
4A32
330
4F8D
100
AcDbEntity
  8
V0-OBRYS
  6
CONTINUOUS
 62
    90
 48
2.0
100
AcDbLine
 10
1194.51003
 20
-1233.911209
 30
0.0
 11
1194.51003
 21
-1308.122329
 31
0.0
  0
LINE
  5
4A33
330
4F8D
100
AcDbEntity
  8
V0-OBRYS
  6
CONTINUOUS
 62
    90
 48
2.0
100
AcDbLine
 10
1221.51027
 20
-1233.911209
 30
0.0
 11
1221.51027
 21
-1323.911929
 31
0.0
  0
CIRCLE
  5
4A34
330
4F8D
100
AcDbEntity
  8
V0-OBRYS
  6
CONTINUOUS
 62
    90
 48
2.0
100
AcDbCircle
 10
1217.195912
 20
-1450.132542
 30
0.0
 40
2.894689
  0
CIRCLE
  5
4A35
330
4F8D
100
AcDbEntity
  8
V0-OBRYS
  6
CONTINUOUS
 62
    90
 48
2.0
100
AcDbCircle
 10
1217.195912
 20
-1428.532542
 30
0.0
 40
2.894689
  0
CIRCLE
  5
4A36
330
4F8D
100
AcDbEntity
  8
V0-OBRYS
  6
CONTINUOUS
 62
    90
 48
2.0
100
AcDbCircle
 10
1217.195912
 20
-1406.932542
 30
0.0
 40
2.894689
  0
ARC
  5
4A37
330
4F8D
100
AcDbEntity
  8
V0-OBRYS
  6
CONTINUOUS
 62
    90
 48
2.0
100
AcDbCircle
 10
1229.573433
 20
-1397.02535
 30
0.0
 40
9.0
100
AcDbArc
 50
168.220473
 51
180.215669
  0
ARC
  5
4A38
330
4F8D
100
AcDbEntity
  8
V0-OBRYS
  6
CONTINUOUS
 62
    90
 48
2.0
100
AcDbCircle
 10
1229.573433
 20
-1397.02535
 30
0.0
 40
6.189299
100
AcDbArc
 50
168.220473
 51
180.215669
  0
LINE
  5
4A39
330
4F8D
100
AcDbEntity
  8
V0-OBRYS
  6
CONTINUOUS
 62
    90
 48
2.0
100
AcDbLine
 10
1220.499806
 20
-1302.48938
 30
0.0
 11
1195.448036
 21
-1287.340247
 31
0.0
  0
LINE
  5
4A3A
330
4F8D
100
AcDbEntity
  8
V0-OBRYS
  6
CONTINUOUS
 62
    90
 48
2.0
100
AcDbLine
 10
1221.257965
 20
-1318.395972
 30
0.0
 11
1194.689883
 21
-1296.42973
 31
0.0
  0
ARC
  5
4A3B
330
4F8D
100
AcDbEntity
  8
V0-OBRYS
  6
CONTINUOUS
 62
    90
 48
2.0
100
AcDbCircle
 10
1207.779924
 20
-1310.448293
 30
0.0
 40
13.472201
100
AcDbArc
 50
170.05812
 51
267.95693
  0
LINE
  5
4A3C
330
4F8D
100
AcDbEntity
  8
V0-OBRYS
  6
CONTINUOUS
 62
    90
 48
2.0
100
AcDbLine
 10
1194.51003
 20
-1233.911209
 30
0.0
 11
1194.51003
 21
-1159.700089
 31
0.0
  0
LINE
  5
4A3D
330
4F8D
100
AcDbEntity
  8
V0-OBRYS
  6
CONTINUOUS
 62
    90
 48
2.0
100
AcDbLine
 10
1221.51027
 20
-1233.911209
 30
0.0
 11
1221.51027
 21
-1143.910489
 31
0.0
  0
LINE
  5
4A3F
330
4F8D
100
AcDbEntity
  8
V0-OBRYS
  6
CONTINUOUS
 62
    90
 48
2.0
100
AcDbLine
 10
1220.499806
 20
-1247.195043
 30
0.0
 11
1194.689883
 21
-1246.437587
 31
0.0
  0
LINE
  5
4A40
330
4F8D
100
AcDbEntity
  8
V0-OBRYS
  6
CONTINUOUS
 62
    90
 48
2.0
100
AcDbLine
 10
1220.499806
 20
-1265.374005
 30
0.0
 11
1194.689883
 21
-1262.344176
 31
0.0
  0
LINE
  5
4A41
330
4F8D
100
AcDbEntity
  8
V0-OBRYS
  6
CONTINUOUS
 62
    90
 48
2.0
100
AcDbLine
 10
1220.499806
 20
-1265.374005
 30
0.0
 11
1225.048742
 21
-1265.374005
 31
0.0
  0
LINE
  5
4A42
330
4F8D
100
AcDbEntity
  8
V0-OBRYS
  6
CONTINUOUS
 62
    90
 48
2.0
100
AcDbLine
 10
1220.499806
 20
-1202.448414
 30
0.0
 11
1194.689883
 21
-1205.478242
 31
0.0
  0
LINE
  5
4A43
330
4F8D
100
AcDbEntity
  8
V0-OBRYS
  6
CONTINUOUS
 62
    90
 48
2.0
100
AcDbLine
 10
1221.257965
 20
-1184.269456
 30
0.0
 11
1193.931724
 21
-1191.086566
 31
0.0
  0
LINE
  5
4A44
330
4F8D
100
AcDbEntity
  8
V0-OBRYS
  6
CONTINUOUS
 62
    90
 48
2.0
100
AcDbLine
 10
1220.499806
 20
-1220.627375
 30
0.0
 11
1194.689883
 21
-1221.384831
 31
0.0
  0
LINE
  5
4A45
330
4F8D
100
AcDbEntity
  8
V0-OBRYS
  6
CONTINUOUS
 62
    90
 48
2.0
100
AcDbLine
 10
1220.499806
 20
-1202.448414
 30
0.0
 11
1225.048742
 21
-1202.448414
 31
0.0
  0
LINE
  5
4A46
330
4F8D
100
AcDbEntity
  8
V0-OBRYS
  6
CONTINUOUS
 62
    90
 48
2.0
100
AcDbLine
 10
1220.499806
 20
-1165.333038
 30
0.0
 11
1195.448036
 21
-1180.482171
 31
0.0
  0
LINE
  5
4A47
330
4F8D
100
AcDbEntity
  8
V0-OBRYS
  6
CONTINUOUS
 62
    90
 48
2.0
100
AcDbLine
 10
1221.257965
 20
-1149.426446
 30
0.0
 11
1194.689883
 21
-1171.392689
 31
0.0
  0
ARC
  5
4A48
330
4F8D
100
AcDbEntity
  8
V0-OBRYS
  6
CONTINUOUS
 62
    90
 48
2.0
100
AcDbCircle
 10
1207.779924
 20
-1157.374126
 30
0.0
 40
13.472201
100
AcDbArc
 50
92.04307
 51
189.94188
  0
LINE
  5
4A49
330
4F8D
100
AcDbEntity
  8
V0-OBRYS
  6
CONTINUOUS
 62
    90
 48
2.0
100
AcDbLine
 10
1220.090934
 20
-967.343245
 30
0.0
 11
1220.090934
 21
-1070.658466
 31
0.0
  0
LINE
  5
4A4A
330
4F8D
100
AcDbEntity
  8
V0-OBRYS
  6
CONTINUOUS
 62
    90
 48
2.0
100
AcDbLine
 10
1222.901635
 20
-967.343245
 30
0.0
 11
1222.901635
 21
-1070.658466
 31
0.0
  0
CIRCLE
  5
4A4B
330
4F8D
100
AcDbEntity
  8
V0-OBRYS
  6
CONTINUOUS
 62
    90
 48
2.0
100
AcDbCircle
 10
1217.32239
 20
-1039.289876
 30
0.0
 40
2.894689
  0
CIRCLE
  5
4A4C
330
4F8D
100
AcDbEntity
  8
V0-OBRYS
  6
CONTINUOUS
 62
    90
 48
2.0
100
AcDbCircle
 10
1217.32239
 20
-1060.889876
 30
0.0
 40
2.894689
  0
ARC
  5
4A4D
330
4F8D
100
AcDbEntity
  8
V0-OBRYS
  6
CONTINUOUS
 62
    90
 48
2.0
100
AcDbCircle
 10
1229.090934
 20
-1070.658466
 30
0.0
 40
9.0
100
AcDbArc
 50
180.0
 51
191.903847
  0
ARC
  5
4A4E
330
4F8D
100
AcDbEntity
  8
V0-OBRYS
  6
CONTINUOUS
 62
    90
 48
2.0
100
AcDbCircle
 10
1229.090934
 20
-1070.658466
 30
0.0
 40
6.189299
100
AcDbArc
 50
180.0
 51
191.903847
  0
CIRCLE
  5
4A4F
330
4F8D
100
AcDbEntity
  8
V0-OBRYS
  6
CONTINUOUS
 62
    90
 48
2.0
100
AcDbCircle
 10
1217.32239
 20
-1017.689876
 30
0.0
 40
2.894689
  0
CIRCLE
  5
4A50
330
4F8D
100
AcDbEntity
  8
V0-OBRYS
  6
CONTINUOUS
 62
    90
 48
2.0
100
AcDbCircle
 10
1217.32239
 20
-996.089876
 30
0.0
 40
2.894689
  0
ARC
  5
4A51
330
4F8D
100
AcDbEntity
  8
V0-OBRYS
  6
CONTINUOUS
 62
    90
 48
2.0
100
AcDbCircle
 10
1229.090934
 20
-967.343245
 30
0.0
 40
9.0
100
AcDbArc
 50
144.271055
 51
180.0
  0
ARC
  5
4A52
330
4F8D
100
AcDbEntity
  8
V0-OBRYS
  6
CONTINUOUS
 62
    90
 48
2.0
100
AcDbCircle
 10
1229.090934
 20
-967.343245
 30
0.0
 40
6.189299
100
AcDbArc
 50
144.607521
 51
180.0
  0
CIRCLE
  5
4A53
330
4F8D
100
AcDbEntity
  8
V0-OBRYS
  6
CONTINUOUS
 62
    90
 48
2.0
100
AcDbCircle
 10
1217.32239
 20
-974.489876
 30
0.0
 40
2.894689
  0
LINE
  5
4A54
330
4F8D
100
AcDbEntity
  8
V0-OBRYS
  6
CONTINUOUS
 62
    90
 48
2.0
100
AcDbLine
 10
1236.721191
 20
-1633.911209
 30
0.0
 11
1236.721191
 21
-1233.911209
 31
0.0
  0
LINE
  5
4A55
330
4F8D
100
AcDbEntity
  8
V0-OBRYS
  6
CONTINUOUS
 62
    90
100
AcDbLine
 10
1248.321191
 20
-833.911209
 30
0.0
 11
1248.321191
 21
-1633.911209
 31
0.0
  0
LINE
  5
4A56
330
4F8D
100
AcDbEntity
  8
V0-OBRYS
  6
CONTINUOUS
 62
    90
 48
2.0
100
AcDbLine
 10
1350.878441
 20
-1233.911209
 30
0.0
 11
1350.878441
 21
-1548.910759
 31
0.0
  0
LINE
  5
4A57
330
4F8D
100
AcDbEntity
  8
V0-VYPLNE
  6
DASHED
 62
    52
100
AcDbLine
 10
1346.760398
 20
-1342.084023
 30
0.0
 11
1330.62697
 21
-1543.532281
 31
0.0
  0
LINE
  5
4A58
330
4F8D
100
AcDbEntity
  8
V0-VYPLNE
  6
DASHED
 62
    52
100
AcDbLine
 10
1271.681671
 20
-1342.084023
 30
0.0
 11
1287.815098
 21
-1543.532281
 31
0.0
  0
LINE
  5
4A59
330
4F8D
100
AcDbEntity
  8
V0-OBRYS
  6
CONTINUOUS
 62
    90
 48
2.0
100
AcDbLine
 10
1247.980991
 20
-1584.343759
 30
0.0
 11
1267.204101
 21
-1561.966165
 31
0.0
  0
LINE
  5
4A5A
330
4F8D
100
AcDbEntity
  8
V0-OBRYS
  6
CONTINUOUS
 62
    90
 48
2.0
100
AcDbLine
 10
1248.321191
 20
-1633.911209
 30
0.0
 11
1236.721191
 21
-1633.911209
 31
0.0
  0
POINT
  5
4A5B
330
4F8D
100
AcDbEntity
  8
DEFPOINTS
  6
BYBLOCK
 62
     0
100
AcDbPoint
 10
1236.721191
 20
-1633.911209
 30
0.0
  0
POINT
  5
4A5C
330
4F8D
100
AcDbEntity
  8
DEFPOINTS
  6
BYBLOCK
 62
     0
100
AcDbPoint
 10
1236.721191
 20
-1633.911209
 30
0.0
  0
POINT
  5
4A5D
330
4F8D
100
AcDbEntity
  8
DEFPOINTS
  6
BYBLOCK
 62
     0
100
AcDbPoint
 10
1248.321191
 20
-1633.911209
 30
0.0
  0
POINT
  5
4A5E
330
4F8D
100
AcDbEntity
  8
DEFPOINTS
  6
BYBLOCK
 62
     0
100
AcDbPoint
 10
1248.321191
 20
-1633.911209
 30
0.0
  0
ARC
  5
4A5F
330
4F8D
100
AcDbEntity
  8
V0-OBRYS
  6
CONTINUOUS
 62
    90
 48
2.0
100
AcDbCircle
 10
1235.303672
 20
-1589.45712
 30
0.0
 40
1.41752
100
AcDbArc
 50
180.0
 51
0.0
  0
LINE
  5
4A60
330
4F8D
100
AcDbEntity
  8
V0-OBRYS
  6
CONTINUOUS
 62
    90
 48
2.0
100
AcDbLine
 10
1233.886152
 20
-1589.45712
 30
0.0
 11
1233.886152
 21
-1572.66515
 31
0.0
  0
LINE
  5
4A61
330
4F8D
100
AcDbEntity
  8
V0-OBRYS
  6
CONTINUOUS
 62
    90
 48
2.0
100
AcDbLine
 10
1350.878441
 20
-1548.910759
 30
0.0
 11
1290.083015
 21
-1548.910759
 31
0.0
  0
LINE
  5
4A62
330
4F8D
100
AcDbEntity
  8
V0-VYPLNE
  6
DASHED
 62
    52
100
AcDbLine
 10
1287.815098
 20
-1543.532281
 30
0.0
 11
1330.62697
 21
-1543.532281
 31
0.0
  0
ARC
  5
4A63
330
4F8D
100
AcDbEntity
  8
V0-OBRYS
  6
CONTINUOUS
 62
    90
 48
2.0
100
AcDbCircle
 10
1290.083015
 20
-1575.485509
 30
0.0
 40
26.57475
100
AcDbArc
 50
90.0
 51
149.420799
  0
LINE
  5
4A64
330
4F8D
100
AcDbEntity
  8
V0-OBRYS
  6
CONTINUOUS
 62
    90
 48
2.0
100
AcDbLine
 10
1236.721191
 20
-833.911209
 30
0.0
 11
1236.721191
 21
-1233.911209
 31
0.0
  0
LINE
  5
4A65
330
4F8D
100
AcDbEntity
  8
V0-OBRYS
  6
CONTINUOUS
 62
    90
 48
2.0
100
AcDbLine
 10
1350.878441
 20
-1233.911209
 30
0.0
 11
1350.878441
 21
-918.911659
 31
0.0
  0
LINE
  5
4A66
330
4F8D
100
AcDbEntity
  8
V0-VYPLNE
  6
DASHED
 62
    52
100
AcDbLine
 10
1346.760398
 20
-1125.034462
 30
0.0
 11
1330.62697
 21
-923.586204
 31
0.0
  0
LINE
  5
4A67
330
4F8D
100
AcDbEntity
  8
V0-VYPLNE
  6
DASHED
 62
    52
100
AcDbLine
 10
1271.681671
 20
-1125.034462
 30
0.0
 11
1287.815098
 21
-923.586204
 31
0.0
  0
ELLIPSE
  5
4A68
330
4F8D
100
AcDbEntity
  8
V0-VYPLNE
  6
DASHED
 62
    52
100
AcDbEllipse
 10
299.731999
 20
-1143.461521
 30
0.0
 11
90.48858875235604
 21
1178.040671638683
 31
0.0
210
0.0
220
0.0
230
-1.0
 40
0.9035820000000008
 41
1.577872487405572
 42
1.65804142274572
  0
LINE
  5
4A69
330
4F8D
100
AcDbEntity
  8
V0-VYPLNE
  6
DASHED
 62
    52
100
AcDbLine
 10
1310.721034
 20
-1338.908664
 30
0.0
 11
1310.721034
 21
-1233.559242
 31
0.0
  0
LINE
  5
4A6A
330
4F8D
100
AcDbEntity
  8
V0-VYPLNE
  6
DASHED
 62
    52
100
AcDbLine
 10
1263.992166
 20
-1316.017129
 30
0.0
 11
1263.992166
 21
-1233.911209
 31
0.0
  0
LINE
  5
4A6B
330
4F8D
100
AcDbEntity
  8
V0-VYPLNE
  6
DASHED
 62
    52
100
AcDbLine
 10
1271.721034
 20
-1233.559242
 30
0.0
 11
1271.721034
 21
-1333.879242
 31
0.0
  0
ELLIPSE
  5
4A6C
330
4F8D
100
AcDbEntity
  8
V0-VYPLNE
  6
DASHED
 62
    52
100
AcDbEllipse
 10
1309.042964
 20
-1180.491988
 30
0.0
 11
-3.259087625325492
 21
158.386498351827
 31
0.0
210
0.0
220
0.0
230
-1.0
 40
0.9501590000000003
 41
2.949539719734717
 42
3.413799455236087
  0
LINE
  5
4A6D
330
4F8D
100
AcDbEntity
  8
V0-VYPLNE
  6
DASHED
 62
    52
100
AcDbLine
 10
1277.827739
 20
-1335.329583
 30
0.0
 11
1271.681671
 21
-1342.084023
 31
0.0
  0
ARC
  5
4A6E
330
4F8D
100
AcDbEntity
  8
V0-VYPLNE
  6
DASHED
 62
    52
 48
2.0
100
AcDbCircle
 10
1248.984872
 20
-1305.750666
 30
0.0
 40
18.182936
100
AcDbArc
 50
267.202292
 51
325.624038
  0
LINE
  5
4A6F
330
4F8D
100
AcDbEntity
  8
V0-VYPLNE
  6
DASHED
 62
    52
100
AcDbLine
 10
1236.721237
 20
-1318.395972
 30
0.0
 11
1263.992166
 21
-1318.395972
 31
0.0
  0
LINE
  5
4A70
330
4F8D
100
AcDbEntity
  8
V0-VYPLNE
  6
DASHED
 62
    52
100
AcDbLine
 10
1236.721237
 20
-1323.911929
 30
0.0
 11
1248.097366
 21
-1323.911929
 31
0.0
  0
ARC
  5
4A71
330
4F8D
100
AcDbEntity
  8
V0-OBRYS
  6
CONTINUOUS
 62
    90
 48
2.0
100
AcDbCircle
 10
1226.393345
 20
-1324.102719
 30
0.0
 40
11.810701
100
AcDbArc
 50
348.220473
 51
359.162914
  0
ARC
  5
4A72
330
4F8D
100
AcDbEntity
  8
V0-OBRYS
  6
CONTINUOUS
 62
    90
 48
2.0
100
AcDbCircle
 10
1226.393345
 20
-1324.102719
 30
0.0
 40
9.0
100
AcDbArc
 50
348.220473
 51
0.215669
  0
LINE
  5
4A73
330
4F8D
100
AcDbEntity
  8
V0-VYPLNE
  6
DASHED
 62
    52
100
AcDbLine
 10
1236.721237
 20
-1302.48938
 30
0.0
 11
1263.992166
 21
-1302.48938
 31
0.0
  0
LINE
  5
4A74
330
4F8D
100
AcDbEntity
  8
V0-VYPLNE
  6
DASHED
 62
    52
100
AcDbLine
 10
1236.721237
 20
-1283.552962
 30
0.0
 11
1263.234013
 21
-1283.552962
 31
0.0
  0
ELLIPSE
  5
4A75
330
4F8D
100
AcDbEntity
  8
V0-VYPLNE
  6
DASHED
 62
    52
100
AcDbEllipse
 10
1345.078708
 20
-1329.884232
 30
0.0
 11
-7.8346973290802
 21
2.993262335647614
 31
0.0
210
0.0
220
0.0
230
-1.0
 40
0.7902230000000001
 41
2.346836735397626
 42
3.616065469384971
  0
ELLIPSE
  5
4A76
330
4F8D
100
AcDbEntity
  8
V0-VYPLNE
  6
DASHED
 62
    52
100
AcDbEllipse
 10
299.731999
 20
-1323.656963
 30
0.0
 11
-90.48858875231304
 21
1178.04067163867
 31
0.0
210
0.0
220
0.0
230
-1.0
 40
0.903582
 41
1.483551230844037
 42
1.563720166184187
  0
LINE
  5
4A77
330
4F8D
100
AcDbEntity
  8
V0-VYPLNE
  6
DASHED
 62
    52
100
AcDbLine
 10
1310.721034
 20
-1128.20982
 30
0.0
 11
1310.721034
 21
-1233.559242
 31
0.0
  0
LINE
  5
4A78
330
4F8D
100
AcDbEntity
  8
V0-VYPLNE
  6
DASHED
 62
    52
100
AcDbLine
 10
1263.992166
 20
-1151.805289
 30
0.0
 11
1263.992166
 21
-1233.911209
 31
0.0
  0
LINE
  5
4A79
330
4F8D
100
AcDbEntity
  8
V0-VYPLNE
  6
DASHED
 62
    52
100
AcDbLine
 10
1271.721034
 20
-1233.559242
 30
0.0
 11
1271.721034
 21
-1133.239242
 31
0.0
  0
ELLIPSE
  5
4A7A
330
4F8D
100
AcDbEntity
  8
V0-VYPLNE
  6
DASHED
 62
    52
100
AcDbEllipse
 10
1310.721034
 20
-1233.911315
 30
0.0
 11
6.821210263296962E-13
 21
7.458195139447525
 31
0.0
210
0.0
220
0.0
230
-1.0
 40
0.909091
 41
0.0
 42
6.283185307179586
  0
LINE
  5
4A7B
330
4F8D
100
AcDbEntity
  8
V0-VYPLNE
  6
DASHED
 62
    52
100
AcDbLine
 10
1272.356234
 20
-1245.605329
 30
0.0
 11
1351.465076
 21
-1221.099894
 31
0.0
  0
LINE
  5
4A7F
330
4F8D
100
AcDbEntity
  8
V0-VYPLNE
  6
DASHED
 62
    52
100
AcDbLine
 10
1236.721237
 20
-1265.374005
 30
0.0
 11
1263.992166
 21
-1265.374005
 31
0.0
  0
LINE
  5
4A80
330
4F8D
100
AcDbEntity
  8
V0-VYPLNE
  6
DASHED
 62
    52
100
AcDbLine
 10
1236.721237
 20
-1247.195043
 30
0.0
 11
1263.234013
 21
-1247.195043
 31
0.0
  0
LINE
  5
4A81
330
4F8D
100
AcDbEntity
  8
V0-VYPLNE
  6
DASHED
 62
    52
100
AcDbLine
 10
1236.721237
 20
-1220.627375
 30
0.0
 11
1263.234013
 21
-1220.627375
 31
0.0
  0
LINE
  5
4A82
330
4F8D
100
AcDbEntity
  8
V0-VYPLNE
  6
DASHED
 62
    52
100
AcDbLine
 10
1236.721237
 20
-1202.448414
 30
0.0
 11
1263.992166
 21
-1202.448414
 31
0.0
  0
LINE
  5
4A83
330
4F8D
100
AcDbEntity
  8
V0-VYPLNE
  6
DASHED
 62
    52
100
AcDbLine
 10
1236.721237
 20
-1184.269456
 30
0.0
 11
1263.234013
 21
-1184.269456
 31
0.0
  0
ELLIPSE
  5
4A84
330
4F8D
100
AcDbEntity
  8
V0-VYPLNE
  6
DASHED
 62
    52
100
AcDbEllipse
 10
1309.042964
 20
-1286.626497
 30
0.0
 11
3.259087625323901
 21
158.386498351827
 31
0.0
210
0.0
220
0.0
230
-1.0
 40
0.950159
 41
-0.2722068016462947
 42
0.1920529338550488
  0
ARC
  5
4A85
330
4F8D
100
AcDbEntity
  8
V0-VYPLNE
  6
DASHED
 62
    52
 48
2.0
100
AcDbCircle
 10
1248.984872
 20
-1162.071753
 30
0.0
 40
18.182936
100
AcDbArc
 50
34.375962
 51
92.797708
  0
LINE
  5
4A86
330
4F8D
100
AcDbEntity
  8
V0-VYPLNE
  6
DASHED
 62
    52
100
AcDbLine
 10
1236.721237
 20
-1165.333038
 30
0.0
 11
1263.992166
 21
-1165.333038
 31
0.0
  0
LINE
  5
4A87
330
4F8D
100
AcDbEntity
  8
V0-VYPLNE
  6
DASHED
 62
    52
100
AcDbLine
 10
1236.721237
 20
-1149.426446
 30
0.0
 11
1263.992166
 21
-1149.426446
 31
0.0
  0
LINE
  5
4A88
330
4F8D
100
AcDbEntity
  8
V0-VYPLNE
  6
DASHED
 62
    52
100
AcDbLine
 10
1236.721237
 20
-1143.910489
 30
0.0
 11
1248.097366
 21
-1143.910489
 31
0.0
  0
ARC
  5
4A89
330
4F8D
100
AcDbEntity
  8
V0-OBRYS
  6
CONTINUOUS
 62
    90
 48
2.0
100
AcDbCircle
 10
1226.053465
 20
-1143.513751
 30
0.0
 40
9.0
100
AcDbArc
 50
0.0
 51
11.903847
  0
ARC
  5
4A8A
330
4F8D
100
AcDbEntity
  8
V0-OBRYS
  6
CONTINUOUS
 62
    90
 48
2.0
100
AcDbCircle
 10
1226.053465
 20
-1143.513751
 30
0.0
 40
11.810701
100
AcDbArc
 50
1.052754
 51
11.903847
  0
LINE
  5
4A8B
330
4F8D
100
AcDbEntity
  8
V0-VYPLNE
  6
DASHED
 62
    52
100
AcDbLine
 10
1277.827739
 20
-1131.788902
 30
0.0
 11
1271.681671
 21
-1125.034462
 31
0.0
  0
LINE
  5
4A8C
330
4F8D
100
AcDbEntity
  8
V0-OBRYS
  6
CONTINUOUS
 62
    90
 48
2.0
100
AcDbLine
 10
1233.886152
 20
-878.3652990000001
 30
0.0
 11
1233.886152
 21
-895.157268
 31
0.0
  0
LINE
  5
4A8D
330
4F8D
100
AcDbEntity
  8
V0-OBRYS
  6
CONTINUOUS
 62
    90
 48
2.0
100
AcDbLine
 10
1247.980991
 20
-883.478659
 30
0.0
 11
1267.204101
 21
-905.856253
 31
0.0
  0
LINE
  5
4A8E
330
4F8D
100
AcDbEntity
  8
V0-OBRYS
  6
CONTINUOUS
 62
    90
 48
2.0
100
AcDbLine
 10
1350.878441
 20
-918.911659
 30
0.0
 11
1290.083015
 21
-918.911659
 31
0.0
  0
LINE
  5
4A8F
330
4F8D
100
AcDbEntity
  8
V0-VYPLNE
  6
DASHED
 62
    52
100
AcDbLine
 10
1287.815098
 20
-923.586204
 30
0.0
 11
1330.62697
 21
-923.586204
 31
0.0
  0
ARC
  5
4A90
330
4F8D
100
AcDbEntity
  8
V0-OBRYS
  6
CONTINUOUS
 62
    90
 48
2.0
100
AcDbCircle
 10
1290.083015
 20
-892.336909
 30
0.0
 40
26.57475
100
AcDbArc
 50
210.579201
 51
270.0
  0
ARC
  5
4A91
330
4F8D
100
AcDbEntity
  8
V0-OBRYS
  6
CONTINUOUS
 62
    90
 48
2.0
100
AcDbCircle
 10
1235.303672
 20
-878.3652990000001
 30
0.0
 40
1.41752
100
AcDbArc
 50
0.0
 51
180.0
  0
LINE
  5
4A92
330
4F8D
100
AcDbEntity
  8
V0-OBRYS
  6
CONTINUOUS
 62
    90
 48
2.0
100
AcDbLine
 10
1248.321191
 20
-833.911209
 30
0.0
 11
1236.721191
 21
-833.911209
 31
0.0
  0
POINT
  5
4A9B
330
4F8D
100
AcDbEntity
  8
V0-VYPLNE
  6
CONTINUOUS
 62
    41
100
AcDbPoint
 10
1350.878441
 20
-11.000907
 30
0.0
  0
POINT
  5
4A9C
330
4F8D
100
AcDbEntity
  8
V0-VYPLNE
  6
CONTINUOUS
 62
    41
100
AcDbPoint
 10
1350.878441
 20
-1233.911209
 30
0.0
  0
DIMENSION
  5
4E36
330
4F8D
100
AcDbEntity
  8
V0-VYPLNE
  6
CONTINUOUS
 62
    41
100
AcDbDimension
  2
*D12
 10
1532.267002000008
 20
-361.433457
 30
0.0
 11
1510.267002000008
 21
-11.00090699999993
 31
0.0
 70
    32
  1
%%C730
  3
ED40
100
AcDbAlignedDimension
 13
1247.980991
 23
339.431643
 33
0.0
 14
1247.980991
 24
-361.433457
 34
0.0
 50
90.0
100
AcDbRotatedDimension
  0
LINE
  5
4E42
330
4F8D
100
AcDbEntity
  8
V0-OBRYS
  6
CONTINUOUS
 62
    90
100
AcDbLine
 10
1168.510032
 20
-51.000918
 30
0.0
 11
1194.510032
 21
-51.000918
 31
0.0
  0
LINE
  5
4E43
330
4F8D
100
AcDbEntity
  8
V0-OBRYS
  6
CONTINUOUS
 62
    90
100
AcDbLine
 10
1168.510032
 20
28.999082
 30
0.0
 11
1194.510032
 21
28.999082
 31
0.0
  0
LINE
  5
4E44
330
4F8D
100
AcDbEntity
  8
V0-OBRYS
  6
CONTINUOUS
 62
    90
100
AcDbLine
 10
1168.510032
 20
-11.000918
 30
0.0
 11
1168.510032
 21
-51.000918
 31
0.0
  0
LINE
  5
4E45
330
4F8D
100
AcDbEntity
  8
V0-OBRYS
  6
CONTINUOUS
 62
    90
100
AcDbLine
 10
1183.510032
 20
-11.000918
 30
0.0
 11
1183.510032
 21
-51.000918
 31
0.0
  0
LINE
  5
4E46
330
4F8D
100
AcDbEntity
  8
V0-OBRYS
  6
CONTINUOUS
 62
    90
100
AcDbLine
 10
1168.510032
 20
-11.000918
 30
0.0
 11
1168.510032
 21
28.999082
 31
0.0
  0
LINE
  5
4E47
330
4F8D
100
AcDbEntity
  8
V0-OBRYS
  6
CONTINUOUS
 62
    90
100
AcDbLine
 10
1183.510032
 20
-11.000918
 30
0.0
 11
1183.510032
 21
28.999082
 31
0.0
  0
LINE
  5
4E48
330
4F8D
100
AcDbEntity
  8
V0-OBRYS
  6
CONTINUOUS
 62
    90
100
AcDbLine
 10
1194.510032
 20
-51.000918
 30
0.0
 11
1194.510032
 21
-11.000918
 31
0.0
  0
LINE
  5
4E49
330
4F8D
100
AcDbEntity
  8
V0-OBRYS
  6
CONTINUOUS
 62
    90
100
AcDbLine
 10
1194.510032
 20
28.999082
 30
0.0
 11
1194.510032
 21
-11.000918
 31
0.0
  0
LINE
  5
4E4A
330
4F8D
100
AcDbEntity
  8
V0-OBRYS
  6
CONTINUOUS
 62
    90
100
AcDbLine
 10
1168.510032
 20
-1273.91122
 30
0.0
 11
1194.510032
 21
-1273.91122
 31
0.0
  0
LINE
  5
4E4B
330
4F8D
100
AcDbEntity
  8
V0-OBRYS
  6
CONTINUOUS
 62
    90
100
AcDbLine
 10
1168.510032
 20
-1193.91122
 30
0.0
 11
1194.510032
 21
-1193.91122
 31
0.0
  0
LINE
  5
4E4C
330
4F8D
100
AcDbEntity
  8
V0-OBRYS
  6
CONTINUOUS
 62
    90
100
AcDbLine
 10
1168.510032
 20
-1233.91122
 30
0.0
 11
1168.510032
 21
-1273.91122
 31
0.0
  0
LINE
  5
4E4D
330
4F8D
100
AcDbEntity
  8
V0-OBRYS
  6
CONTINUOUS
 62
    90
100
AcDbLine
 10
1183.510032
 20
-1233.91122
 30
0.0
 11
1183.510032
 21
-1273.91122
 31
0.0
  0
LINE
  5
4E4E
330
4F8D
100
AcDbEntity
  8
V0-OBRYS
  6
CONTINUOUS
 62
    90
100
AcDbLine
 10
1168.510032
 20
-1233.91122
 30
0.0
 11
1168.510032
 21
-1193.91122
 31
0.0
  0
LINE
  5
4E4F
330
4F8D
100
AcDbEntity
  8
V0-OBRYS
  6
CONTINUOUS
 62
    90
100
AcDbLine
 10
1183.510032
 20
-1233.91122
 30
0.0
 11
1183.510032
 21
-1193.91122
 31
0.0
  0
LINE
  5
4E50
330
4F8D
100
AcDbEntity
  8
V0-OBRYS
  6
CONTINUOUS
 62
    90
100
AcDbLine
 10
1194.510032
 20
-1273.91122
 30
0.0
 11
1194.510032
 21
-1233.91122
 31
0.0
  0
LINE
  5
4E51
330
4F8D
100
AcDbEntity
  8
V0-OBRYS
  6
CONTINUOUS
 62
    90
100
AcDbLine
 10
1194.510032
 20
-1193.91122
 30
0.0
 11
1194.510032
 21
-1233.91122
 31
0.0
  0
DIMENSION
  5
4E74
330
4F8D
100
AcDbEntity
  8
V0-VYPLNE
  6
CONTINUOUS
 62
    41
100
AcDbDimension
  2
*D13
 10
1350.878441
 20
-589.4389659999749
 30
0.0
 11
1259.6942365
 21
-567.4389659999749
 31
0.0
 70
    32
  3
ED40
100
AcDbAlignedDimension
 13
1168.510032
 23
-51.000918
 33
0.0
 14
1350.878441
 24
-327.000457
 34
0.0
100
AcDbRotatedDimension
  0
TEXT
  5
4E92
330
4F8D
100
AcDbEntity
  8
0
  6
BYBLOCK
 62
    41
100
AcDbText
 10
1180.742456047619
 20
-449.290774
 30
0.0
 40
40.0
  1
12
  7
ED40
100
AcDbText
  0
LWPOLYLINE
  5
4E93
330
4F8D
100
AcDbEntity
  8
V0-OBRYS
  6
CONTINUOUS
 62
    41
100
AcDbPolyline
 90
        4
 70
     1
 43
0.0
 10
2363.418906560841
 20
-392.9120399214484
 10
2389.552024
 20
-361.903902
 10
2374.888200883428
 20
-399.7115300140704
 10
2374.888200883428
 20
-399.7115300140704
1001
VDEXTRAPARAM
1071
       65
1071
        0
1071
        0
1040
1.0
1000

1000

1040
0.0
1040
0.0
  0
HATCH
  5
5013
330
4F8D
100
AcDbEntity
  8
V0-OBRYS
  6
CONTINUOUS
 62
    41
100
AcDbHatch
 10
0.0
 20
0.0
 30
0.0
210
0.0
220
0.0
230
1.0
  2
SOLID
 70
     1
 71
     0
 91
        1
 92
        2
 72
     0
 73
     1
 93
        3
 10
2363.418906560841
 20
-392.9120399214484
 10
2389.552024
 20
-361.903902
 10
2374.888200883428
 20
-399.7115300140704
 97
        0
 75
     0
 76
     1
 98
        1
 10
0.0
 20
0.0
1001
VDEXTRAPARAM
1071
       65
1071
        0
1071
        0
1040
1.0
1000

1000

1040
0.0
1040
0.0
1001
VD_TEMPHATCH
1000
VD_TEMPHATCH
  0
LWPOLYLINE
  5
4E94
330
4F8D
100
AcDbEntity
  8
V0-OBRYS
  6
CONTINUOUS
 62
    41
100
AcDbPolyline
 90
        3
 70
     0
 43
0.0
 10
2369.153553722134
 20
-396.3117849677594
 10
2310.612485
 20
-495.058123
 10
1932.580989
 20
-495.058123
  0
TEXT
  5
4E99
330
4F8D
100
AcDbEntity
  8
V0-OBRYS
  6
CONTINUOUS
 62
    41
100
AcDbText
 10
1820.993437380952
 20
-493.058123
 30
0.0
 40
40.0
  1
4 OTVORY %%c10
  7
ED40
100
AcDbText
  0
VIEWPORT
  5
5014
330
4F89
100
AcDbEntity
 67
     1
  8
0
 60
     1
100
AcDbViewport
 10
261.517699
 20
148.5
 30
0.0
 40
297.0
 41
297.0
 68
     0
 69
     1
1001
VD_INVISIBLE_NOT_FOR_READ
1000
VD_INVISIBLE_NOT_FOR_READ
1001
ACAD
1000
MVIEW
1002
{
1070
    16
1010
0.0
1020
0.0
1030
0.0
1010
0.0
1020
0.0
1030
1.0
1040
6.2831853071796
1040
297.0
1040
261.517699
1040
148.5
1040
0.0
1040
0.0
1040
0.0
1070
     0
1070
   100
1070
     0
1070
     1
1070
     0
1070
     0
1070
     0
1070
     0
1040
0.0
1040
0.0
1040
0.0
1040
1.0
1040
1.0
1040
0.0
1040
0.0
1070
     0
1002
{
1002
}
1002
}
  0
VIEWPORT
  5
5015
330
4F89
100
AcDbEntity
 67
     1
  8
0
 60
     1
100
AcDbViewport
 10
261.517699
 20
148.5
 30
0.0
 40
297.0
 41
297.0
 68
     0
 69
     2
1001
VD_INVISIBLE_NOT_FOR_READ
1000
VD_INVISIBLE_NOT_FOR_READ
1001
ACAD
1000
MVIEW
1002
{
1070
    16
1010
0.0
1020
0.0
1030
0.0
1010
0.0
1020
0.0
1030
1.0
1040
6.2831853071796
1040
297.0
1040
261.517699
1040
148.5
1040
0.0
1040
0.0
1040
0.0
1070
     0
1070
   100
1070
     0
1070
     1
1070
     0
1070
     0
1070
     0
1070
     0
1040
0.0
1040
0.0
1040
0.0
1040
1.0
1040
1.0
1040
0.0
1040
0.0
1070
     0
1002
{
1002
}
1002
}
  0
ENDSEC
  0
SECTION
  2
OBJECTS
  0
DICTIONARY
  5
4F7A
330
0
100
AcDbDictionary
  3
ACAD_GROUP
350
4F7B
  3
ACAD_LAYOUT
350
4F88
  3
ACAD_MLINESTYLE
350
4F85
  3
ACAD_PLOTSETTINGS
350
4F87
  3
ACDBHEADERROUNDTRIPXREC
350
5016
  3
VECTORDRAW_OBJECTS
350
4F9D
  0
DICTIONARY
  5
5036
330
4F97
100
AcDbDictionary
280
     1
  3
ACAD_XREC_ROUNDTRIP
360
5037
  0
DICTIONARY
  5
4F7B
102
{ACAD_REACTORS
330
4F7A
102
}
330
4F7A
100
AcDbDictionary
  0
DICTIONARY
  5
4F88
102
{ACAD_REACTORS
330
4F7A
102
}
330
4F7A
100
AcDbDictionary
  0
DICTIONARY
  5
4F85
102
{ACAD_REACTORS
330
4F7A
102
}
330
4F7A
100
AcDbDictionary
  3
STANDARD
350
4F86
  0
DICTIONARY
  5
4F87
102
{ACAD_REACTORS
330
4F7A
102
}
330
4F7A
100
AcDbDictionary
  0
DICTIONARY
  5
5016
102
{ACAD_REACTORS
330
4F7A
102
}
330
4F7A
100
AcDbDictionary
  3
CEPSNTYPE
350
501F
  3
DIMSTYLEDATA
350
5035
  3
FINGERPRINTGUID
350
5020
  3
HYPERLINKBASE
350
5019
  3
INSUNITS
350
501E
  3
LAYOUTDICT
350
501B
  3
LWETCUNION
350
501D
  3
PLOTSETDICT
350
501C
  3
PSVPSCALE
350
5022
  3
PUCSBASE
350
5025
  3
PUCSORGBACK
350
502B
  3
PUCSORGBOTTOM
350
5027
  3
PUCSORGFRONT
350
502A
  3
PUCSORGLEFT
350
5028
  3
PUCSORGRIGHT
350
5029
  3
PUCSORGTOP
350
5026
  3
PUCSORTHOREF
350
5023
  3
PUCSORTHOVIEW
350
5024
  3
STYLESHEET
350
501A
  3
TSTACKALIGN
350
5017
  3
TSTACKSIZE
350
5018
  3
UCSBASE
350
502E
  3
UCSORGBACK
350
5034
  3
UCSORGBOTTOM
350
5030
  3
UCSORGFRONT
350
5033
  3
UCSORGLEFT
350
5031
  3
UCSORGRIGHT
350
5032
  3
UCSORGTOP
350
502F
  3
UCSORTHOREF
350
502C
  3
UCSORTHOVIEW
350
502D
  3
VERSIONGUID
350
5021
  0
DICTIONARY
  5
4F9D
102
{ACAD_REACTORS
330
4F7A
102
}
330
4F7A
100
AcDbDictionary
  3
SERIALNO
350
4F9E
  0
XRECORD
  5
5037
102
{ACAD_REACTORS
330
5036
102
}
330
5036
100
AcDbXrecord
102
UCS
 74
     0
 71
     1
 10
0.0
 20
0.0
 30
0.0
 10
1.0
 20
0.0
 30
0.0
 10
0.0
 20
1.0
 30
0.0
146
0.0
 79
     0
102
VIEW
281
     0
  0
MLINESTYLE
  5
4F86
102
{ACAD_REACTORS
330
4F85
102
}
330
4F85
100
AcDbMlineStyle
  2
Standard
 70
     0
  3

 62
   256
 51
90.0
 52
90.0
 71
     2
 49
0.5
 62
   256
  6
BYLAYER
 49
-0.5
 62
   256
  6
BYLAYER
  0
XRECORD
  5
501F
102
{ACAD_REACTORS
330
5016
102
}
330
5016
100
AcDbXrecord
 90
        0
  0
XRECORD
  5
5035
102
{ACAD_REACTORS
330
5016
102
}
330
5016
100
AcDbXrecord
1000
DSTYLE
1002
{
1070
    41
 40
40.0
1070
   342
340
90
1070
   177
 70
    41
1070
   178
 70
    41
1070
   271
 70
     0
1070
    44
 40
1.25
1070
    42
 40
1.0
1070
   147
 40
2.0
1070
    77
 70
     1
1070
    73
 70
     0
1070
   174
 70
     1
1070
   172
 70
     1
1070
    74
 70
     0
1070
   340
340
F39
1070
   140
 40
40.0
1070
   288
 70
     1
1002
}
  0
XRECORD
  5
5020
102
{ACAD_REACTORS
330
5016
102
}
330
5016
100
AcDbXrecord
  1
{FAEB1C30-E019-11D5-929B-00C0DF256EC4}
  0
XRECORD
  5
5019
102
{ACAD_REACTORS
330
5016
102
}
330
5016
100
AcDbXrecord
  1

  0
XRECORD
  5
501E
102
{ACAD_REACTORS
330
5016
102
}
330
5016
100
AcDbXrecord
 90
        1
  0
XRECORD
  5
501B
102
{ACAD_REACTORS
330
5016
102
}
330
5016
100
AcDbXrecord
340
4F88
  0
XRECORD
  5
501D
102
{ACAD_REACTORS
330
5016
102
}
330
5016
100
AcDbXrecord
 90
     2560
  0
XRECORD
  5
501C
102
{ACAD_REACTORS
330
5016
102
}
330
5016
100
AcDbXrecord
340
4F87
  0
XRECORD
  5
5022
102
{ACAD_REACTORS
330
5016
102
}
330
5016
100
AcDbXrecord
 40
0.0
  0
XRECORD
  5
5025
102
{ACAD_REACTORS
330
5016
102
}
330
5016
100
AcDbXrecord
340
0
  0
XRECORD
  5
502B
102
{ACAD_REACTORS
330
5016
102
}
330
5016
100
AcDbXrecord
 10
0.0
 20
0.0
 30
0.0
  0
XRECORD
  5
5027
102
{ACAD_REACTORS
330
5016
102
}
330
5016
100
AcDbXrecord
 10
0.0
 20
0.0
 30
0.0
  0
XRECORD
  5
502A
102
{ACAD_REACTORS
330
5016
102
}
330
5016
100
AcDbXrecord
 10
0.0
 20
0.0
 30
0.0
  0
XRECORD
  5
5028
102
{ACAD_REACTORS
330
5016
102
}
330
5016
100
AcDbXrecord
 10
0.0
 20
0.0
 30
0.0
  0
XRECORD
  5
5029
102
{ACAD_REACTORS
330
5016
102
}
330
5016
100
AcDbXrecord
 10
0.0
 20
0.0
 30
0.0
  0
XRECORD
  5
5026
102
{ACAD_REACTORS
330
5016
102
}
330
5016
100
AcDbXrecord
 10
0.0
 20
0.0
 30
0.0
  0
XRECORD
  5
5023
102
{ACAD_REACTORS
330
5016
102
}
330
5016
100
AcDbXrecord
340
0
  0
XRECORD
  5
5024
102
{ACAD_REACTORS
330
5016
102
}
330
5016
100
AcDbXrecord
 70
     0
  0
XRECORD
  5
501A
102
{ACAD_REACTORS
330
5016
102
}
330
5016
100
AcDbXrecord
  1

  0
XRECORD
  5
5017
102
{ACAD_REACTORS
330
5016
102
}
330
5016
100
AcDbXrecord
 90
        1
  0
XRECORD
  5
5018
102
{ACAD_REACTORS
330
5016
102
}
330
5016
100
AcDbXrecord
 90
       70
  0
XRECORD
  5
502E
102
{ACAD_REACTORS
330
5016
102
}
330
5016
100
AcDbXrecord
340
0
  0
XRECORD
  5
5034
102
{ACAD_REACTORS
330
5016
102
}
330
5016
100
AcDbXrecord
 10
0.0
 20
0.0
 30
0.0
  0
XRECORD
  5
5030
102
{ACAD_REACTORS
330
5016
102
}
330
5016
100
AcDbXrecord
 10
0.0
 20
0.0
 30
0.0
  0
XRECORD
  5
5033
102
{ACAD_REACTORS
330
5016
102
}
330
5016
100
AcDbXrecord
 10
0.0
 20
0.0
 30
0.0
  0
XRECORD
  5
5031
102
{ACAD_REACTORS
330
5016
102
}
330
5016
100
AcDbXrecord
 10
0.0
 20
0.0
 30
0.0
  0
XRECORD
  5
5032
102
{ACAD_REACTORS
330
5016
102
}
330
5016
100
AcDbXrecord
 10
0.0
 20
0.0
 30
0.0
  0
XRECORD
  5
502F
102
{ACAD_REACTORS
330
5016
102
}
330
5016
100
AcDbXrecord
 10
0.0
 20
0.0
 30
0.0
  0
XRECORD
  5
502C
102
{ACAD_REACTORS
330
5016
102
}
330
5016
100
AcDbXrecord
340
0
  0
XRECORD
  5
502D
102
{ACAD_REACTORS
330
5016
102
}
330
5016
100
AcDbXrecord
 70
     0
  0
XRECORD
  5
5021
102
{ACAD_REACTORS
330
5016
102
}
330
5016
100
AcDbXrecord
  1
{FAEB1C32-E019-11D5-929B-00C0DF256EC4}
  0
XRECORD
  5
4F9E
102
{ACAD_REACTORS
330
4F9D
102
}
330
4F9D
100
AcDbXrecord
1000
rInJVR9YY4Q8hfPWdUq5j5319
1070
     4
1070
     6
  0
ENDSEC
  0
EOF
