  0
SECTION
  2
HEADER
  9
$ACADVER
  1
AC1014
  9
$ACADMAINTVER
 70
     0
  9
$DWGCODEPAGE
  3
ANSI_1250
  9
$INSBASE
 10
0.0
 20
0.0
 30
0.0
  9
$EXTMIN
 10
-359.708306
 20
59.998683
 30
0.0
  9
$EXTMAX
 10
580.000852
 20
624.699399
 30
0.0
  9
$LIMMIN
 10
0.0
 20
0.0
  9
$LIMMAX
 10
420.0
 20
297.0
  9
$ORTHOMODE
 70
     1
  9
$REGENMODE
 70
     1
  9
$FILLMODE
 70
     1
  9
$QTEXTMODE
 70
     0
  9
$MIRRTEXT
 70
     1
  9
$DRAGMODE
 70
     2
  9
$LTSCALE
 40
1.0
  9
$OSMODE
 70
    37
  9
$ATTMODE
 70
     1
  9
$TEXTSIZE
 40
25.0
  9
$TRACEWID
 40
1.0
  9
$TEXTSTYLE
  7
ED25
  9
$CLAYER
  8
V0-OBRYS
  9
$CELTYPE
  6
CONTINUOUS
  9
$CECOLOR
 62
   256
  9
$CELTSCALE
 40
1.0
  9
$DELOBJ
 70
     1
  9
$DISPSILH
 70
     0
  9
$DIMSCALE
 40
1.0
  9
$DIMASZ
 40
25.0
  9
$DIMEXO
 40
0.625
  9
$DIMDLI
 40
3.75
  9
$DIMRND
 40
0.0
  9
$DIMDLE
 40
0.0
  9
$DIMEXE
 40
1.25
  9
$DIMTP
 40
0.0
  9
$DIMTM
 40
0.0
  9
$DIMTXT
 40
25.0
  9
$DIMCEN
 40
25.0
  9
$DIMTSZ
 40
0.0
  9
$DIMTOL
 70
     0
  9
$DIMLIM
 70
     0
  9
$DIMTIH
 70
     0
  9
$DIMTOH
 70
     0
  9
$DIMSE1
 70
     0
  9
$DIMSE2
 70
     0
  9
$DIMTAD
 70
     1
  9
$DIMZIN
 70
    12
  9
$DIMBLK
  1

  9
$DIMASO
 70
     1
  9
$DIMSHO
 70
     1
  9
$DIMPOST
  1

  9
$DIMAPOST
  1

  9
$DIMALT
 70
     0
  9
$DIMALTD
 70
     4
  9
$DIMALTF
 40
0.0394
  9
$DIMLFAC
 40
1.0
  9
$DIMTOFL
 70
     1
  9
$DIMTVP
 40
0.0
  9
$DIMTIX
 70
     0
  9
$DIMSOXD
 70
     0
  9
$DIMSAH
 70
     1
  9
$DIMBLK1
  1
_OPEN
  9
$DIMBLK2
  1
_OPEN
  9
$DIMSTYLE
  2
ED25
  9
$DIMCLRD
 70
    41
  9
$DIMCLRE
 70
    41
  9
$DIMCLRT
 70
    41
  9
$DIMTFAC
 40
1.0
  9
$DIMGAP
 40
5.0
  9
$DIMJUST
 70
     0
  9
$DIMSD1
 70
     0
  9
$DIMSD2
 70
     0
  9
$DIMTOLJ
 70
     1
  9
$DIMTZIN
 70
     0
  9
$DIMALTZ
 70
     0
  9
$DIMALTTZ
 70
     0
  9
$DIMFIT
 70
     3
  9
$DIMUPT
 70
     0
  9
$DIMUNIT
 70
     2
  9
$DIMDEC
 70
     0
  9
$DIMTDEC
 70
     4
  9
$DIMALTU
 70
     8
  9
$DIMALTTD
 70
     4
  9
$DIMTXSTY
  7
ED25
  9
$DIMAUNIT
 70
     0
  9
$LUNITS
 70
     2
  9
$LUPREC
 70
     4
  9
$SKETCHINC
 40
1.0
  9
$FILLETRAD
 40
5.0
  9
$AUNITS
 70
     0
  9
$AUPREC
 70
     0
  9
$MENU
  1
.
  9
$ELEVATION
 40
0.0
  9
$PELEVATION
 40
0.0
  9
$THICKNESS
 40
0.0
  9
$LIMCHECK
 70
     0
  9
$BLIPMODE
 70
     0
  9
$CHAMFERA
 40
10.0
  9
$CHAMFERB
 40
10.0
  9
$CHAMFERC
 40
20.0
  9
$CHAMFERD
 40
0.0
  9
$SKPOLY
 70
     0
  9
$TDCREATE
 40
2451205.795226389
  9
$TDUPDATE
 40
2453319.763009884
  9
$TDINDWG
 40
0.2966984491
  9
$TDUSRTIMER
 40
0.2966984491
  9
$USRTIMER
 70
     1
  9
$ANGBASE
 50
0.0
  9
$ANGDIR
 70
     0
  9
$PDMODE
 70
     3
  9
$PDSIZE
 40
15.0
  9
$PLINEWID
 40
0.0
  9
$COORDS
 70
     1
  9
$SPLFRAME
 70
     0
  9
$SPLINETYPE
 70
     6
  9
$SPLINESEGS
 70
     8
  9
$ATTDIA
 70
     0
  9
$ATTREQ
 70
     1
  9
$HANDLING
 70
     1
  9
$HANDSEED
  5
6BD
  9
$SURFTAB1
 70
     6
  9
$SURFTAB2
 70
     6
  9
$SURFTYPE
 70
     6
  9
$SURFU
 70
     6
  9
$SURFV
 70
     6
  9
$UCSNAME
  2

  9
$UCSORG
 10
453.7432806609578
 20
384.098381186695
 30
0.0
  9
$UCSXDIR
 10
1.0
 20
0.0
 30
0.0
  9
$UCSYDIR
 10
0.0
 20
1.0
 30
0.0
  9
$PUCSNAME
  2

  9
$PUCSORG
 10
0.0
 20
0.0
 30
0.0
  9
$PUCSXDIR
 10
1.0
 20
0.0
 30
0.0
  9
$PUCSYDIR
 10
0.0
 20
1.0
 30
0.0
  9
$USERI1
 70
     0
  9
$USERI2
 70
     0
  9
$USERI3
 70
     0
  9
$USERI4
 70
     0
  9
$USERI5
 70
     0
  9
$USERR1
 40
0.0
  9
$USERR2
 40
0.0
  9
$USERR3
 40
0.0
  9
$USERR4
 40
0.0
  9
$USERR5
 40
0.0
  9
$WORLDVIEW
 70
     1
  9
$SHADEDGE
 70
     3
  9
$SHADEDIF
 70
    70
  9
$TILEMODE
 70
     1
  9
$MAXACTVP
 70
    48
  9
$PINSBASE
 10
0.0
 20
0.0
 30
0.0
  9
$PLIMCHECK
 70
     0
  9
$PEXTMIN
 10
1.000000E+20
 20
1.000000E+20
 30
1.000000E+20
  9
$PEXTMAX
 10
-1.000000E+20
 20
-1.000000E+20
 30
-1.000000E+20
  9
$PLIMMIN
 10
0.0
 20
0.0
  9
$PLIMMAX
 10
420.0
 20
297.0
  9
$UNITMODE
 70
     0
  9
$VISRETAIN
 70
     1
  9
$PLINEGEN
 70
     0
  9
$PSLTSCALE
 70
     0
  9
$TREEDEPTH
 70
  3020
  9
$PICKSTYLE
 70
     1
  9
$CMLSTYLE
  2
STANDARD
  9
$CMLJUST
 70
     1
  9
$CMLSCALE
 40
20.0
  9
$PROXYGRAPHICS
 70
     1
  9
$MEASUREMENT
 70
     1
  0
ENDSEC
  0
SECTION
  2
CLASSES
  0
CLASS
  1
LWPOLYLINE
  2
AcDbPolyline
  3
"AutoCAD"
 90
        0
280
     0
281
     1
  0
ENDSEC
  0
SECTION
  2
TABLES
  0
TABLE
  2
VPORT
  5
8
100
AcDbSymbolTable
 70
     2
  0
VPORT
  5
6BC
100
AcDbSymbolTableRecord
100
AcDbViewportTableRecord
  2
*ACTIVE
 70
     0
 10
0.0
 20
0.0
 11
1.0
 21
1.0
 12
126.571323
 22
353.692366
 13
0.0
 23
0.0
 14
10.0
 24
10.0
 15
10.0
 25
10.0
 16
0.0
 26
0.0
 36
1.0
 17
0.0
 27
0.0
 37
0.0
 40
708.756865
 41
1.585567
 42
50.0
 43
0.0
 44
0.0
 50
0.0
 51
0.0
 71
     0
 72
   100
 73
     1
 74
     1
 75
     0
 76
     0
 77
     0
 78
     0
  0
ENDTAB
  0
TABLE
  2
LTYPE
  5
5
100
AcDbSymbolTable
 70
     2
  0
LTYPE
  5
12
100
AcDbSymbolTableRecord
100
AcDbLinetypeTableRecord
  2
BYBLOCK
 70
     0
  3

 72
    65
 73
     0
 40
0.0
  0
LTYPE
  5
13
100
AcDbSymbolTableRecord
100
AcDbLinetypeTableRecord
  2
BYLAYER
 70
     0
  3

 72
    65
 73
     0
 40
0.0
  0
LTYPE
  5
14
100
AcDbSymbolTableRecord
100
AcDbLinetypeTableRecord
  2
CONTINUOUS
 70
     0
  3
Solid line
 72
    65
 73
     0
 40
0.0
  0
LTYPE
  5
22
100
AcDbSymbolTableRecord
100
AcDbLinetypeTableRecord
  2
DASHDOT
 70
     0
  3
Dash dot __ . __ . __ . __ . __ . __ . __ . __
 72
    65
 73
     4
 40
25.4
 49
12.7
 74
     0
 49
-6.35
 74
     0
 49
0.0
 74
     0
 49
-6.35
 74
     0
  0
ENDTAB
  0
TABLE
  2
LAYER
  5
2
100
AcDbSymbolTable
 70
     6
  0
LAYER
  5
E
100
AcDbSymbolTableRecord
100
AcDbLayerTableRecord
  2
0
 70
     0
 62
     7
  6
CONTINUOUS
  0
LAYER
  5
23
100
AcDbSymbolTableRecord
100
AcDbLayerTableRecord
  2
V0-OBRYS
 70
     0
 62
    90
  6
CONTINUOUS
  0
LAYER
  5
24
100
AcDbSymbolTableRecord
100
AcDbLayerTableRecord
  2
V0-VYPLNĚ
 70
     0
 62
    63
  6
DASHDOT
  0
LAYER
  5
25
100
AcDbSymbolTableRecord
100
AcDbLayerTableRecord
  2
V0-ZBYTEK
 70
     0
 62
    51
  6
CONTINUOUS
  0
LAYER
  5
2A
100
AcDbSymbolTableRecord
100
AcDbLayerTableRecord
  2
V0-NAZVY
 70
     0
 62
   210
  6
CONTINUOUS
  0
LAYER
  5
39
100
AcDbSymbolTableRecord
100
AcDbLayerTableRecord
  2
DEFPOINTS
 70
     0
 62
     7
  6
CONTINUOUS
  0
ENDTAB
  0
TABLE
  2
STYLE
  5
3
100
AcDbSymbolTable
 70
     3
  0
STYLE
  5
F
100
AcDbSymbolTableRecord
100
AcDbTextStyleTableRecord
  2
STANDARD
 70
     0
 40
0.0
 41
1.0
 50
0.0
 71
     0
 42
2.5
  3
txt
  4

  0
STYLE
  5
21
100
AcDbSymbolTableRecord
100
AcDbTextStyleTableRecord
  2

 70
     1
 40
0.0
 41
1.0
 50
0.0
 71
     0
 42
2.5
  3
ltypeshp.shx
  4

  0
STYLE
  5
29
100
AcDbSymbolTableRecord
100
AcDbTextStyleTableRecord
  2
ED25
 70
     0
 40
25.0
 41
1.0
 50
0.0
 71
     0
 42
25.0
  3
isocp.shx
  4

  0
ENDTAB
  0
TABLE
  2
VIEW
  5
6
100
AcDbSymbolTable
 70
     0
  0
ENDTAB
  0
TABLE
  2
UCS
  5
7
100
AcDbSymbolTable
 70
     0
  0
ENDTAB
  0
TABLE
  2
APPID
  5
9
100
AcDbSymbolTable
 70
     1
  0
APPID
  5
10
100
AcDbSymbolTableRecord
100
AcDbRegAppTableRecord
  2
ACAD
 70
     0
  0
ENDTAB
  0
TABLE
  2
DIMSTYLE
  5
A
100
AcDbSymbolTable
 70
     1
  0
DIMSTYLE
105
1D
102
{ACAD_REACTORS
330
378
330
24B
330
35E
330
36B
330
440
102
}
100
AcDbSymbolTableRecord
100
AcDbDimStyleTableRecord
  2
ED25
 70
     0
  3

  4

  5

  6
_OPEN
  7
_OPEN
 40
1.0
 41
25.0
 42
0.625
 43
5.0
 44
1.25
 45
0.0
 46
0.0
 47
0.0
 48
0.0
140
25.0
141
25.0
142
0.0
143
0.0394
144
1.0
145
0.0
146
1.0
147
0.625
 71
     0
 72
     0
 73
     0
 74
     0
 75
     0
 76
     0
 77
     1
 78
    12
170
     0
171
     4
172
     1
173
     1
174
     0
175
     0
176
    41
177
    41
178
    41
270
     2
271
     0
272
     4
273
     8
274
     4
340
29
275
     0
280
     0
281
     0
282
     0
283
     1
284
     0
285
     0
286
     0
287
     3
288
     0
  0
ENDTAB
  0
TABLE
  2
BLOCK_RECORD
  5
1
100
AcDbSymbolTable
 70
     6
  0
BLOCK_RECORD
  5
18
100
AcDbSymbolTableRecord
100
AcDbBlockTableRecord
  2
*MODEL_SPACE
  0
BLOCK_RECORD
  5
15
100
AcDbSymbolTableRecord
100
AcDbBlockTableRecord
  2
*PAPER_SPACE
  0
BLOCK_RECORD
  5
2B
100
AcDbSymbolTableRecord
100
AcDbBlockTableRecord
  2
_OPEN
  0
BLOCK_RECORD
  5
634
100
AcDbSymbolTableRecord
100
AcDbBlockTableRecord
  2
*D1
  0
BLOCK_RECORD
  5
640
100
AcDbSymbolTableRecord
100
AcDbBlockTableRecord
  2
*D2
  0
BLOCK_RECORD
  5
64C
100
AcDbSymbolTableRecord
100
AcDbBlockTableRecord
  2
*D3
  0
BLOCK_RECORD
  5
658
100
AcDbSymbolTableRecord
100
AcDbBlockTableRecord
  2
*D4
  0
BLOCK_RECORD
  5
67B
100
AcDbSymbolTableRecord
100
AcDbBlockTableRecord
  2
*D5
  0
ENDTAB
  0
ENDSEC
  0
SECTION
  2
BLOCKS
  0
BLOCK
  5
19
100
AcDbEntity
  8
0
100
AcDbBlockBegin
  2
*MODEL_SPACE
 70
     0
 10
0.0
 20
0.0
 30
0.0
  3
*MODEL_SPACE
  1

  0
ENDBLK
  5
1A
100
AcDbEntity
  8
0
100
AcDbBlockEnd
  0
BLOCK
  5
16
100
AcDbEntity
 67
     1
  8
0
100
AcDbBlockBegin
  2
*PAPER_SPACE
 70
     0
 10
0.0
 20
0.0
 30
0.0
  3
*PAPER_SPACE
  1

  0
ENDBLK
  5
17
100
AcDbEntity
 67
     1
  8
0
100
AcDbBlockEnd
  0
BLOCK
  5
2C
100
AcDbEntity
  8
0
100
AcDbBlockBegin
  2
_OPEN
 70
     0
 10
0.0
 20
0.0
 30
0.0
  3
_OPEN
  1

  0
LINE
  5
2D
100
AcDbEntity
  8
0
  6
BYBLOCK
 62
     0
100
AcDbLine
 10
-1.0
 20
0.166667
 30
0.0
 11
0.0
 21
0.0
 31
0.0
  0
LINE
  5
2E
100
AcDbEntity
  8
0
  6
BYBLOCK
 62
     0
100
AcDbLine
 10
0.0
 20
0.0
 30
0.0
 11
-1.0
 21
-0.166667
 31
0.0
  0
LINE
  5
2F
100
AcDbEntity
  8
0
  6
BYBLOCK
 62
     0
100
AcDbLine
 10
0.0
 20
0.0
 30
0.0
 11
-1.0
 21
0.0
 31
0.0
  0
ENDBLK
  5
30
100
AcDbEntity
  8
0
100
AcDbBlockEnd
  0
BLOCK
  5
635
100
AcDbEntity
  8
0
100
AcDbBlockBegin
  2
*D1
 70
     1
 10
0.0
 20
0.0
 30
0.0
  3
*D1
  1

  0
LINE
  5
636
100
AcDbEntity
  8
0
  6
BYBLOCK
 62
    41
100
AcDbLine
 10
-267.952971
 20
333.473381
 30
0.0
 11
-267.952971
 21
256.058775
 31
0.0
  0
LINE
  5
637
100
AcDbEntity
  8
0
  6
BYBLOCK
 62
    41
100
AcDbLine
 10
112.047029
 20
333.473381
 30
0.0
 11
112.047029
 21
256.058775
 31
0.0
  0
LINE
  5
638
100
AcDbEntity
  8
0
  6
BYBLOCK
 62
    41
100
AcDbLine
 10
-242.952971
 20
257.308775
 30
0.0
 11
87.047029
 21
257.308775
 31
0.0
  0
INSERT
  5
639
100
AcDbEntity
  8
0
  6
BYBLOCK
 62
    41
100
AcDbBlockReference
  2
_OPEN
 10
-267.952971
 20
257.308775
 30
0.0
 41
25.0
 42
25.0
 43
25.0
 50
180.0
  0
INSERT
  5
63A
100
AcDbEntity
  8
0
  6
BYBLOCK
 62
    41
100
AcDbBlockReference
  2
_OPEN
 10
112.047029
 20
257.308775
 30
0.0
 41
25.0
 42
25.0
 43
25.0
  0
MTEXT
  5
63B
100
AcDbEntity
  8
0
  6
BYBLOCK
 62
    41
100
AcDbMText
 10
-77.964748
 20
274.808775
 30
0.0
 40
25.0
 41
0.0
 71
     5
 72
     1
  1
\A1;380
  7
ED25
  0
POINT
  5
63C
100
AcDbEntity
  8
DEFPOINTS
  6
BYBLOCK
 62
     0
100
AcDbPoint
 10
-267.952971
 20
334.098381
 30
0.0
  0
POINT
  5
63D
100
AcDbEntity
  8
DEFPOINTS
  6
BYBLOCK
 62
     0
100
AcDbPoint
 10
112.047029
 20
334.098381
 30
0.0
  0
POINT
  5
63E
100
AcDbEntity
  8
DEFPOINTS
  6
BYBLOCK
 62
     0
100
AcDbPoint
 10
112.047029
 20
257.308775
 30
0.0
  0
ENDBLK
  5
63F
100
AcDbEntity
  8
0
100
AcDbBlockEnd
  0
BLOCK
  5
641
100
AcDbEntity
  8
0
100
AcDbBlockBegin
  2
*D2
 70
     1
 10
0.0
 20
0.0
 30
0.0
  3
*D2
  1

  0
LINE
  5
642
100
AcDbEntity
  8
0
  6
BYBLOCK
 62
    41
100
AcDbLine
 10
112.672029
 20
334.098381
 30
0.0
 11
209.26601
 21
334.098381
 31
0.0
  0
LINE
  5
643
100
AcDbEntity
  8
0
  6
BYBLOCK
 62
    41
100
AcDbLine
 10
62.672029
 20
534.098381
 30
0.0
 11
209.26601
 21
534.098381
 31
0.0
  0
LINE
  5
644
100
AcDbEntity
  8
0
  6
BYBLOCK
 62
    41
100
AcDbLine
 10
208.01601
 20
359.098381
 30
0.0
 11
208.01601
 21
509.098381
 31
0.0
  0
INSERT
  5
645
100
AcDbEntity
  8
0
  6
BYBLOCK
 62
    41
100
AcDbBlockReference
  2
_OPEN
 10
208.01601
 20
334.098381
 30
0.0
 41
25.0
 42
25.0
 43
25.0
 50
270.0
  0
INSERT
  5
646
100
AcDbEntity
  8
0
  6
BYBLOCK
 62
    41
100
AcDbBlockReference
  2
_OPEN
 10
208.01601
 20
534.098381
 30
0.0
 41
25.0
 42
25.0
 43
25.0
 50
90.0
  0
MTEXT
  5
647
100
AcDbEntity
  8
0
  6
BYBLOCK
 62
    41
100
AcDbMText
 10
190.51355
 20
439.581794
 30
0.0
 40
25.0
 41
0.0
 71
     5
 72
     1
  1
\A1;200
  7
ED25
 11
0.0
 21
1.0
 31
0.0
  0
POINT
  5
648
100
AcDbEntity
  8
DEFPOINTS
  6
BYBLOCK
 62
     0
100
AcDbPoint
 10
112.047029
 20
334.098381
 30
0.0
  0
POINT
  5
649
100
AcDbEntity
  8
DEFPOINTS
  6
BYBLOCK
 62
     0
100
AcDbPoint
 10
62.047029
 20
534.098381
 30
0.0
  0
POINT
  5
64A
100
AcDbEntity
  8
DEFPOINTS
  6
BYBLOCK
 62
     0
100
AcDbPoint
 10
208.01601
 20
534.098381
 30
0.0
  0
ENDBLK
  5
64B
100
AcDbEntity
  8
0
100
AcDbBlockEnd
  0
BLOCK
  5
64D
100
AcDbEntity
  8
0
100
AcDbBlockBegin
  2
*D3
 70
     1
 10
0.0
 20
0.0
 30
0.0
  3
*D3
  1

  0
LINE
  5
64E
100
AcDbEntity
  8
0
  6
BYBLOCK
 62
    41
100
AcDbLine
 10
-268.577971
 20
434.098381
 30
0.0
 11
-332.198464
 21
434.098381
 31
0.0
  0
LINE
  5
64F
100
AcDbEntity
  8
0
  6
BYBLOCK
 62
    41
100
AcDbLine
 10
-268.577971
 20
334.098381
 30
0.0
 11
-332.198464
 21
334.098381
 31
0.0
  0
LINE
  5
650
100
AcDbEntity
  8
0
  6
BYBLOCK
 62
    41
100
AcDbLine
 10
-330.948464
 20
409.098381
 30
0.0
 11
-330.948464
 21
359.098381
 31
0.0
  0
INSERT
  5
651
100
AcDbEntity
  8
0
  6
BYBLOCK
 62
    41
100
AcDbBlockReference
  2
_OPEN
 10
-330.948464
 20
434.098381
 30
0.0
 41
25.0
 42
25.0
 43
25.0
 50
90.0
  0
INSERT
  5
652
100
AcDbEntity
  8
0
  6
BYBLOCK
 62
    41
100
AcDbBlockReference
  2
_OPEN
 10
-330.948464
 20
334.098381
 30
0.0
 41
25.0
 42
25.0
 43
25.0
 50
270.0
  0
MTEXT
  5
653
100
AcDbEntity
  8
0
  6
BYBLOCK
 62
    41
100
AcDbMText
 10
-348.448464
 20
384.098381
 30
0.0
 40
25.0
 41
0.0
 71
     5
 72
     1
  1
\A1;\U+2205100
  7
ED25
 11
0.0
 21
1.0
 31
0.0
  0
POINT
  5
654
100
AcDbEntity
  8
DEFPOINTS
  6
BYBLOCK
 62
     0
100
AcDbPoint
 10
-267.952971
 20
434.098381
 30
0.0
  0
POINT
  5
655
100
AcDbEntity
  8
DEFPOINTS
  6
BYBLOCK
 62
     0
100
AcDbPoint
 10
-267.952971
 20
334.098381
 30
0.0
  0
POINT
  5
656
100
AcDbEntity
  8
DEFPOINTS
  6
BYBLOCK
 62
     0
100
AcDbPoint
 10
-330.948464
 20
334.098381
 30
0.0
  0
ENDBLK
  5
657
100
AcDbEntity
  8
0
100
AcDbBlockEnd
  0
BLOCK
  5
659
100
AcDbEntity
  8
0
100
AcDbBlockBegin
  2
*D4
 70
     1
 10
0.0
 20
0.0
 30
0.0
  3
*D4
  1

  0
LINE
  5
65A
100
AcDbEntity
  8
0
  6
BYBLOCK
 62
    41
100
AcDbLine
 10
-217.839342
 20
534.723381
 30
0.0
 11
-217.839342
 21
595.28718
 31
0.0
  0
LINE
  5
65B
100
AcDbEntity
  8
0
  6
BYBLOCK
 62
    41
100
AcDbLine
 10
62.047029
 20
534.723381
 30
0.0
 11
62.047029
 21
595.28718
 31
0.0
  0
LINE
  5
65C
100
AcDbEntity
  8
0
  6
BYBLOCK
 62
    41
100
AcDbLine
 10
-192.839342
 20
594.03718
 30
0.0
 11
37.047029
 21
594.03718
 31
0.0
  0
INSERT
  5
65D
100
AcDbEntity
  8
0
  6
BYBLOCK
 62
    41
100
AcDbBlockReference
  2
_OPEN
 10
-217.839342
 20
594.03718
 30
0.0
 41
25.0
 42
25.0
 43
25.0
 50
180.0
  0
INSERT
  5
65E
100
AcDbEntity
  8
0
  6
BYBLOCK
 62
    41
100
AcDbBlockReference
  2
_OPEN
 10
62.047029
 20
594.03718
 30
0.0
 41
25.0
 42
25.0
 43
25.0
  0
MTEXT
  5
65F
100
AcDbEntity
  8
0
  6
BYBLOCK
 62
    41
100
AcDbMText
 10
-77.896157
 20
611.539641
 30
0.0
 40
25.0
 41
0.0
 71
     5
 72
     1
  1
\A1;280
  7
ED25
  0
POINT
  5
660
100
AcDbEntity
  8
DEFPOINTS
  6
BYBLOCK
 62
     0
100
AcDbPoint
 10
-217.839342
 20
534.098381
 30
0.0
  0
POINT
  5
661
100
AcDbEntity
  8
DEFPOINTS
  6
BYBLOCK
 62
     0
100
AcDbPoint
 10
62.047029
 20
534.098381
 30
0.0
  0
POINT
  5
662
100
AcDbEntity
  8
DEFPOINTS
  6
BYBLOCK
 62
     0
100
AcDbPoint
 10
62.047029
 20
594.03718
 30
0.0
  0
ENDBLK
  5
663
100
AcDbEntity
  8
0
100
AcDbBlockEnd
  0
BLOCK
  5
67C
100
AcDbEntity
  8
0
100
AcDbBlockBegin
  2
*D5
 70
     1
 10
0.0
 20
0.0
 30
0.0
  3
*D5
  1

  0
LINE
  5
67D
100
AcDbEntity
  8
0
  6
BYBLOCK
 62
    41
100
AcDbLine
 10
406.243281
 20
534.723381
 30
0.0
 11
406.243281
 21
597.187315
 31
0.0
  0
LINE
  5
67E
100
AcDbEntity
  8
0
  6
BYBLOCK
 62
    41
100
AcDbLine
 10
501.243281
 20
534.723381
 30
0.0
 11
501.243281
 21
597.187315
 31
0.0
  0
LINE
  5
67F
100
AcDbEntity
  8
0
  6
BYBLOCK
 62
    41
100
AcDbLine
 10
431.243281
 20
595.937315
 30
0.0
 11
476.243281
 21
595.937315
 31
0.0
  0
INSERT
  5
680
100
AcDbEntity
  8
0
  6
BYBLOCK
 62
    41
100
AcDbBlockReference
  2
_OPEN
 10
406.243281
 20
595.937315
 30
0.0
 41
25.0
 42
25.0
 43
25.0
 50
180.0
  0
INSERT
  5
681
100
AcDbEntity
  8
0
  6
BYBLOCK
 62
    41
100
AcDbBlockReference
  2
_OPEN
 10
501.243281
 20
595.937315
 30
0.0
 41
25.0
 42
25.0
 43
25.0
  0
MTEXT
  5
682
100
AcDbEntity
  8
0
  6
BYBLOCK
 62
    41
100
AcDbMText
 10
452.795934
 20
613.437315
 30
0.0
 40
25.0
 41
0.0
 71
     5
 72
     1
  1
\A1;95
  7
ED25
  0
POINT
  5
683
100
AcDbEntity
  8
DEFPOINTS
  6
BYBLOCK
 62
     0
100
AcDbPoint
 10
406.243281
 20
534.098381
 30
0.0
  0
POINT
  5
684
100
AcDbEntity
  8
DEFPOINTS
  6
BYBLOCK
 62
     0
100
AcDbPoint
 10
501.243281
 20
534.098381
 30
0.0
  0
POINT
  5
685
100
AcDbEntity
  8
DEFPOINTS
  6
BYBLOCK
 62
     0
100
AcDbPoint
 10
501.243281
 20
595.937315
 30
0.0
  0
ENDBLK
  5
686
100
AcDbEntity
  8
0
100
AcDbBlockEnd
  0
ENDSEC
  0
SECTION
  2
ENTITIES
  0
LINE
  5
41
100
AcDbEntity
  8
V0-VYPLNĚ
  6
DASHDOT
 48
3.0
100
AcDbLine
 10
-319.723671
 20
384.098381
 30
0.0
 11
168.860603
 21
384.098381
 31
0.0
  0
LINE
  5
45
100
AcDbEntity
  8
V0-OBRYS
100
AcDbLine
 10
-267.952971
 20
384.098381
 30
0.0
 11
-267.952971
 21
434.098381
 31
0.0
  0
LINE
  5
49
100
AcDbEntity
  8
V0-OBRYS
100
AcDbLine
 10
-267.952971
 20
434.098381
 30
0.0
 11
-227.952971
 21
434.098381
 31
0.0
  0
LINE
  5
4A
100
AcDbEntity
  8
V0-OBRYS
100
AcDbLine
 10
112.047029
 20
434.098381
 30
0.0
 11
112.047029
 21
384.098381
 31
0.0
  0
LINE
  5
4B
100
AcDbEntity
  8
V0-OBRYS
  6
DASHDOT
100
AcDbLine
 10
112.047029
 20
384.098381
 30
0.0
 11
112.047029
 21
390.165518
 31
0.0
  0
LINE
  5
4C
100
AcDbEntity
  8
V0-OBRYS
100
AcDbLine
 10
-267.952971
 20
384.098381
 30
0.0
 11
-267.952971
 21
334.098381
 31
0.0
  0
LINE
  5
4D
100
AcDbEntity
  8
V0-OBRYS
100
AcDbLine
 10
-267.952971
 20
334.098381
 30
0.0
 11
-227.952971
 21
334.098381
 31
0.0
  0
LINE
  5
4E
100
AcDbEntity
  8
V0-OBRYS
100
AcDbLine
 10
112.047029
 20
334.098381
 30
0.0
 11
112.047029
 21
384.098381
 31
0.0
  0
LINE
  5
50
100
AcDbEntity
  8
V0-VYPLNĚ
 48
3.0
100
AcDbLine
 10
453.743281
 20
268.359127
 30
0.0
 11
453.743281
 21
554.286958
 31
0.0
  0
LINE
  5
58
100
AcDbEntity
  8
V0-OBRYS
100
AcDbLine
 10
-227.952971
 20
434.098381
 30
0.0
 11
-227.952971
 21
334.098381
 31
0.0
  0
LINE
  5
59
100
AcDbEntity
  8
V0-OBRYS
100
AcDbLine
 10
72.047029
 20
434.098381
 30
0.0
 11
72.047029
 21
334.098381
 31
0.0
  0
LINE
  5
5B
100
AcDbEntity
  8
V0-OBRYS
100
AcDbLine
 10
62.047029
 20
434.098381
 30
0.0
 11
62.047029
 21
334.098381
 31
0.0
  0
LINE
  5
5C
100
AcDbEntity
  8
V0-OBRYS
100
AcDbLine
 10
-217.952971
 20
434.098381
 30
0.0
 11
-217.952971
 21
334.098381
 31
0.0
  0
ARC
  5
5D
100
AcDbEntity
  8
V0-OBRYS
100
AcDbCircle
 10
-222.952971
 20
432.961807
 30
0.0
 40
5.127553
100
AcDbArc
 50
4.223503
 51
167.193443
  0
ARC
  5
5E
100
AcDbEntity
  8
V0-OBRYS
100
AcDbCircle
 10
67.047029
 20
432.961807
 30
0.0
 40
5.127553
100
AcDbArc
 50
4.223503
 51
167.193443
  0
ARC
  5
5F
100
AcDbEntity
  8
V0-OBRYS
100
AcDbCircle
 10
67.047029
 20
335.234955
 30
0.0
 40
5.127553
100
AcDbArc
 50
192.806557
 51
347.193443
  0
ARC
  5
60
100
AcDbEntity
  8
V0-OBRYS
100
AcDbCircle
 10
-222.952971
 20
335.234955
 30
0.0
 40
5.127553
100
AcDbArc
 50
192.806557
 51
347.193443
  0
LINE
  5
61
100
AcDbEntity
  8
V0-OBRYS
100
AcDbLine
 10
72.047029
 20
334.098381
 30
0.0
 11
112.047029
 21
334.098381
 31
0.0
  0
LINE
  5
62
100
AcDbEntity
  8
V0-OBRYS
100
AcDbLine
 10
72.047029
 20
434.098381
 30
0.0
 11
112.047029
 21
434.098381
 31
0.0
  0
LINE
  5
64
100
AcDbEntity
  8
V0-OBRYS
100
AcDbLine
 10
-217.952971
 20
334.098381
 30
0.0
 11
62.047029
 21
334.098381
 31
0.0
  0
LINE
  5
67
100
AcDbEntity
  8
V0-OBRYS
100
AcDbLine
 10
62.047029
 20
524.098381
 30
0.0
 11
-217.839342
 21
524.098381
 31
0.0
  0
LINE
  5
69
100
AcDbEntity
  8
V0-OBRYS
100
AcDbLine
 10
-207.839342
 20
433.339438
 30
0.0
 11
-207.839342
 21
524.098381
 31
0.0
  0
LINE
  5
6A
100
AcDbEntity
  8
V0-OBRYS
100
AcDbLine
 10
-217.839342
 20
524.098381
 30
0.0
 11
-41.894299
 21
524.098381
 31
0.0
  0
LINE
  5
6B
100
AcDbEntity
  8
V0-OBRYS
100
AcDbLine
 10
52.047029
 20
434.098381
 30
0.0
 11
52.047029
 21
524.098381
 31
0.0
  0
LINE
  5
6C
100
AcDbEntity
  8
V0-OBRYS
100
AcDbLine
 10
62.047029
 20
534.098381
 30
0.0
 11
-217.839342
 21
534.098381
 31
0.0
  0
LINE
  5
6D
100
AcDbEntity
  8
V0-OBRYS
100
AcDbLine
 10
-217.839342
 20
524.098381
 30
0.0
 11
-217.839342
 21
534.098381
 31
0.0
  0
LINE
  5
6E
100
AcDbEntity
  8
V0-OBRYS
100
AcDbLine
 10
62.047029
 20
524.098381
 30
0.0
 11
62.047029
 21
534.098381
 31
0.0
  0
LINE
  5
111
100
AcDbEntity
  8
V0-VYPLNĚ
  6
DASHDOT
100
AcDbLine
 10
331.581739
 20
384.098381
 30
0.0
 11
580.000852
 21
384.098381
 31
0.0
  0
LINE
  5
112
100
AcDbEntity
  8
V0-VYPLNĚ
  6
DASHDOT
 48
3.0
100
AcDbLine
 10
331.581739
 20
384.098381
 30
0.0
 11
580.000852
 21
384.098381
 31
0.0
  0
LINE
  5
14C
100
AcDbEntity
  8
V0-VYPLNĚ
  6
DASHDOT
 48
3.0
100
AcDbLine
 10
-303.011292
 20
113.989662
 30
0.0
 11
205.238244
 21
113.989662
 31
0.0
  0
LINE
  5
16E
100
AcDbEntity
  8
V0-OBRYS
  6
DASHDOT
100
AcDbLine
 10
112.047029
 20
113.989662
 30
0.0
 11
112.047029
 21
132.556799
 31
0.0
  0
LINE
  5
16F
100
AcDbEntity
  8
V0-OBRYS
100
AcDbLine
 10
112.047029
 20
163.989662
 30
0.0
 11
112.047029
 21
113.989662
 31
0.0
  0
LINE
  5
170
100
AcDbEntity
  8
V0-OBRYS
100
AcDbLine
 10
-267.952971
 20
113.989662
 30
0.0
 11
-267.952971
 21
163.989662
 31
0.0
  0
LINE
  5
171
100
AcDbEntity
  8
V0-OBRYS
100
AcDbLine
 10
-227.952971
 20
163.989662
 30
0.0
 11
-227.952971
 21
63.989662
 31
0.0
  0
LINE
  5
172
100
AcDbEntity
  8
V0-OBRYS
100
AcDbLine
 10
72.047029
 20
163.989662
 30
0.0
 11
72.047029
 21
63.989662
 31
0.0
  0
LINE
  5
173
100
AcDbEntity
  8
V0-OBRYS
100
AcDbLine
 10
-217.952971
 20
163.989662
 30
0.0
 11
-217.952971
 21
63.989662
 31
0.0
  0
LINE
  5
174
100
AcDbEntity
  8
V0-OBRYS
100
AcDbLine
 10
62.047029
 20
163.989662
 30
0.0
 11
62.047029
 21
63.989662
 31
0.0
  0
LINE
  5
176
100
AcDbEntity
  8
V0-OBRYS
100
AcDbLine
 10
-217.952971
 20
63.989662
 30
0.0
 11
62.047029
 21
63.989662
 31
0.0
  0
LINE
  5
177
100
AcDbEntity
  8
V0-OBRYS
100
AcDbLine
 10
-267.952971
 20
113.989662
 30
0.0
 11
-267.952971
 21
63.989662
 31
0.0
  0
LINE
  5
178
100
AcDbEntity
  8
V0-OBRYS
100
AcDbLine
 10
-267.952971
 20
63.989662
 30
0.0
 11
-227.952971
 21
63.989662
 31
0.0
  0
ARC
  5
179
100
AcDbEntity
  8
V0-OBRYS
100
AcDbCircle
 10
-222.952971
 20
65.126236
 30
0.0
 40
5.127553
100
AcDbArc
 50
192.806557
 51
347.193443
  0
LINE
  5
17C
100
AcDbEntity
  8
V0-OBRYS
100
AcDbLine
 10
112.047029
 20
63.989662
 30
0.0
 11
112.047029
 21
113.989662
 31
0.0
  0
LINE
  5
17D
100
AcDbEntity
  8
V0-OBRYS
100
AcDbLine
 10
72.047029
 20
63.989662
 30
0.0
 11
112.047029
 21
63.989662
 31
0.0
  0
ARC
  5
17E
100
AcDbEntity
  8
V0-OBRYS
100
AcDbCircle
 10
67.047029
 20
65.126236
 30
0.0
 40
5.127553
100
AcDbArc
 50
192.806557
 51
347.193443
  0
LINE
  5
17F
100
AcDbEntity
  8
V0-OBRYS
100
AcDbLine
 10
-267.952971
 20
163.989662
 30
0.0
 11
-227.952971
 21
163.989662
 31
0.0
  0
ARC
  5
180
100
AcDbEntity
  8
V0-OBRYS
100
AcDbCircle
 10
-222.952971
 20
162.853089
 30
0.0
 40
5.127553
100
AcDbArc
 50
4.223503
 51
167.193443
  0
LINE
  5
181
100
AcDbEntity
  8
V0-OBRYS
100
AcDbLine
 10
72.047029
 20
163.989662
 30
0.0
 11
112.047029
 21
163.989662
 31
0.0
  0
ARC
  5
182
100
AcDbEntity
  8
V0-OBRYS
100
AcDbCircle
 10
67.047029
 20
162.853089
 30
0.0
 40
5.127553
100
AcDbArc
 50
4.223503
 51
167.193443
  0
MTEXT
  5
189
100
AcDbEntity
  8
V0-ZBYTEK
  6
CONTINUOUS
100
AcDbMText
 10
349.94201
 20
126.251916
 30
0.0
 40
15.0
 41
320.5922
 71
     1
 72
     5
  1
\C4;ELEKTRICKE OHRIVACE\PPRO KRUHOVA POTRUBI
  7
ED25
  0
LINE
  5
192
100
AcDbEntity
  8
V0-OBRYS
  6
CONTINUOUS
100
AcDbLine
 10
-207.839342
 20
433.339438
 30
0.0
 11
-207.839342
 21
412.244748
 31
0.0
  0
LINE
  5
193
100
AcDbEntity
  8
V0-OBRYS
  6
CONTINUOUS
100
AcDbLine
 10
52.047029
 20
434.098381
 30
0.0
 11
52.047029
 21
412.244748
 31
0.0
  0
LINE
  5
194
100
AcDbEntity
  8
V0-OBRYS
  6
CONTINUOUS
100
AcDbLine
 10
-217.952971
 20
434.098381
 30
0.0
 11
-207.839342
 21
434.098381
 31
0.0
  0
LINE
  5
195
100
AcDbEntity
  8
V0-OBRYS
  6
CONTINUOUS
100
AcDbLine
 10
62.047029
 20
434.098381
 30
0.0
 11
52.047029
 21
434.098381
 31
0.0
  0
TEXT
  5
1A4
100
AcDbEntity
  8
V0-NAZVY
  6
CONTINUOUS
100
AcDbText
 10
376.456573
 20
167.954946
 30
0.0
 40
25.0
  1
MBE - 100
  7
ED25
100
AcDbText
  0
LINE
  5
1B8
100
AcDbEntity
  8
V0-OBRYS
  6
CONTINUOUS
100
AcDbLine
 10
-217.839342
 20
164.230719
 30
0.0
 11
62.047029
 21
164.230719
 31
0.0
  0
LINE
  5
1BD
100
AcDbEntity
  8
V0-OBRYS
  6
CONTINUOUS
100
AcDbLine
 10
-204.839342
 20
155.230719
 30
0.0
 11
47.9498
 21
155.230719
 31
0.0
  0
LINE
  5
1BE
100
AcDbEntity
  8
V0-OBRYS
  6
CONTINUOUS
100
AcDbLine
 10
52.9498
 20
150.230719
 30
0.0
 11
52.9498
 21
77.548271
 31
0.0
  0
LINE
  5
1BF
100
AcDbEntity
  8
V0-OBRYS
  6
CONTINUOUS
100
AcDbLine
 10
47.9498
 20
72.548271
 30
0.0
 11
-204.839342
 21
72.548271
 31
0.0
  0
LINE
  5
1C0
100
AcDbEntity
  8
V0-OBRYS
  6
CONTINUOUS
100
AcDbLine
 10
-209.839342
 20
77.548271
 30
0.0
 11
-209.839342
 21
150.230719
 31
0.0
  0
ARC
  5
1C1
100
AcDbEntity
  8
V0-OBRYS
  6
CONTINUOUS
100
AcDbCircle
 10
-204.839342
 20
150.230719
 30
0.0
 40
5.0
100
AcDbArc
 50
90.0
 51
180.0
  0
ARC
  5
1C2
100
AcDbEntity
  8
V0-OBRYS
  6
CONTINUOUS
100
AcDbCircle
 10
47.9498
 20
150.230719
 30
0.0
 40
5.0
100
AcDbArc
 50
0.0
 51
90.0
  0
ARC
  5
1C3
100
AcDbEntity
  8
V0-OBRYS
  6
CONTINUOUS
100
AcDbCircle
 10
47.9498
 20
77.548271
 30
0.0
 40
5.0
100
AcDbArc
 50
270.0
 51
0.0
  0
ARC
  5
1C4
100
AcDbEntity
  8
V0-OBRYS
  6
CONTINUOUS
100
AcDbCircle
 10
-204.839342
 20
77.548271
 30
0.0
 40
5.0
100
AcDbArc
 50
180.0
 51
270.0
  0
DIMENSION
  5
24B
100
AcDbEntity
  8
V0-VYPLNĚ
  6
CONTINUOUS
 62
    41
100
AcDbDimension
  2
*D2
 10
208.01601
 20
534.098381
 30
0.0
 11
208.01601
 21
439.581794
 31
0.0
 70
   160
  3
ED25
100
AcDbAlignedDimension
 13
112.047029
 23
334.098381
 33
0.0
 14
62.047029
 24
534.098381
 34
0.0
 50
90.0
100
AcDbRotatedDimension
1001
ACAD
1000
DSTYLE
1002
{
1070
   147
1040
5.0
1070
    43
1040
3.75
1002
}
  0
DIMENSION
  5
35E
100
AcDbEntity
  8
V0-VYPLNĚ
  6
CONTINUOUS
 62
    41
100
AcDbDimension
  2
*D3
 10
-330.948464
 20
334.098381
 30
0.0
 11
-330.948464
 21
384.098381
 31
0.0
 70
   160
  1
%%c<>
  3
ED25
100
AcDbAlignedDimension
 13
-267.952971
 23
434.098381
 33
0.0
 14
-267.952971
 24
334.098381
 34
0.0
 50
90.0
100
AcDbRotatedDimension
1001
ACAD
1000
DSTYLE
1002
{
1070
   147
1040
5.0
1070
    43
1040
3.75
1002
}
  0
DIMENSION
  5
36B
100
AcDbEntity
  8
V0-VYPLNĚ
  6
CONTINUOUS
 62
    41
100
AcDbDimension
  2
*D4
 10
62.047029
 20
594.03718
 30
0.0
 11
-77.896157
 21
611.539641
 31
0.0
 70
    32
  3
ED25
100
AcDbAlignedDimension
 13
-217.839342
 23
534.098381
 33
0.0
 14
62.047029
 24
534.098381
 34
0.0
100
AcDbRotatedDimension
1001
ACAD
1000
DSTYLE
1002
{
1070
   147
1040
5.0
1070
    43
1040
3.75
1002
}
  0
DIMENSION
  5
378
100
AcDbEntity
  8
V0-VYPLNĚ
  6
CONTINUOUS
 62
    41
100
AcDbDimension
  2
*D1
 10
112.047029
 20
257.308775
 30
0.0
 11
-77.964748
 21
257.308775
 31
0.0
 70
   160
  3
ED25
100
AcDbAlignedDimension
 13
-267.952971
 23
334.098381
 33
0.0
 14
112.047029
 24
334.098381
 34
0.0
100
AcDbRotatedDimension
1001
ACAD
1000
DSTYLE
1002
{
1070
   147
1040
5.0
1070
    43
1040
3.75
1002
}
  0
POINT
  5
379
100
AcDbEntity
  8
V0-VYPLNĚ
  6
CONTINUOUS
100
AcDbPoint
 10
-227.952971
 20
113.989662
 30
0.0
  0
POINT
  5
37A
100
AcDbEntity
  8
V0-VYPLNĚ
  6
CONTINUOUS
100
AcDbPoint
 10
-227.952971
 20
384.098381
 30
0.0
  0
LWPOLYLINE
  5
42A
100
AcDbEntity
  8
V0-OBRYS
  6
CONTINUOUS
100
AcDbPolyline
 90
        4
 70
     1
 43
0.0
 10
406.243281
 20
534.098381
 10
501.243281
 20
534.098381
 10
501.243281
 20
524.098381
 10
406.243281
 20
524.098381
  0
LINE
  5
42B
100
AcDbEntity
  8
V0-OBRYS
  6
CONTINUOUS
100
AcDbLine
 10
409.243281
 20
524.098381
 30
0.0
 11
409.243281
 21
414.688412
 31
0.0
  0
LINE
  5
42C
100
AcDbEntity
  8
V0-OBRYS
  6
CONTINUOUS
100
AcDbLine
 10
498.243281
 20
524.098381
 30
0.0
 11
498.243281
 21
414.688412
 31
0.0
  0
DIMENSION
  5
440
100
AcDbEntity
  8
V0-VYPLNĚ
  6
CONTINUOUS
100
AcDbDimension
  2
*D5
 10
501.243281
 20
595.937315
 30
0.0
 11
452.795934
 21
595.937315
 31
0.0
 70
   160
  3
ED25
100
AcDbAlignedDimension
 13
406.243281
 23
534.098381
 33
0.0
 14
501.243281
 24
534.098381
 34
0.0
100
AcDbRotatedDimension
1001
ACAD
1000
DSTYLE
1002
{
1070
   147
1040
5.0
1070
    43
1040
3.75
1002
}
  0
ELLIPSE
  5
44E
100
AcDbEntity
  8
V0-OBRYS
100
AcDbEllipse
 10
453.743281
 20
384.098381
 30
0.0
 11
16.83259207333202
 21
16.83259207333202
 31
0.0
210
0.0
220
0.0
230
-1.0
 40
1.0
 41
6.267538331444831
 42
11.58932525598631
  0
ELLIPSE
  5
44F
100
AcDbEntity
  8
V0-OBRYS
100
AcDbEllipse
 10
453.743281
 20
384.098381
 30
0.0
 11
-21.32128329288723
 21
21.32128329288723
 31
0.0
210
0.0
220
0.0
230
1.0
 40
1.0
 41
5.689434338757553
 42
11.01122126329903
  0
ELLIPSE
  5
450
100
AcDbEntity
  8
V0-OBRYS
100
AcDbEllipse
 10
447.395313
 20
416.815059
 30
0.0
 11
2.244345609777616
 21
2.244345609777616
 31
0.0
210
0.0
220
0.0
230
-1.0
 40
1.0
 41
0.7853981633974502
 42
2.164547295216923
  0
ELLIPSE
  5
451
100
AcDbEntity
  8
V0-OBRYS
100
AcDbEllipse
 10
447.395313
 20
416.815059
 30
0.0
 11
-6.733036829332828
 21
6.733036829332828
 31
0.0
210
0.0
220
0.0
230
1.0
 40
1.0
 41
2.547841685167763
 42
3.926990816987242
  0
ELLIPSE
  5
453
100
AcDbEntity
  8
V0-OBRYS
100
AcDbEllipse
 10
472.65925
 20
403.335927
 30
0.0
 11
2.248566662441813
 21
2.248566662441813
 31
0.0
210
0.0
220
0.0
230
-1.0
 40
1.0
 41
3.187228740565843
 42
6.343258766114541
  0
LINE
  5
454
100
AcDbEntity
  8
V0-OBRYS
100
AcDbLine
 10
456.917265
 20
434.088629
 30
0.0
 11
456.917265
 21
416.815059
 31
0.0
  0
LINE
  5
455
100
AcDbEntity
  8
V0-OBRYS
100
AcDbLine
 10
450.569297
 20
434.088629
 30
0.0
 11
450.569297
 21
416.815059
 31
0.0
  0
POINT
  5
456
100
AcDbEntity
  8
V0-VYPLNĚ
  6
CONTINUOUS
100
AcDbPoint
 10
453.743281
 20
384.098381
 30
0.0
  0
LINE
  5
4F5
100
AcDbEntity
  8
V0-OBRYS
  6
CONTINUOUS
100
AcDbLine
 10
-207.839342
 20
412.244748
 30
0.0
 11
52.047029
 21
412.244748
 31
0.0
  0
LINE
  5
562
100
AcDbEntity
  8
V0-VYPLNĚ
  6
CONTINUOUS
100
AcDbLine
 10
450.569297
 20
416.815059
 30
0.0
 11
450.569297
 21
416.815059
 31
0.0
  0
TEXT
  5
564
100
AcDbEntity
  8
V0-NAZVY
  6
CONTINUOUS
100
AcDbText
 10
-143.926322
 20
125.517904
 30
0.0
 40
25.0
  1
MBE - 100
  7
ED25
100
AcDbText
  0
TEXT
  5
565
100
AcDbEntity
  8
V0-NAZVY
  6
CONTINUOUS
100
AcDbText
 10
380.726583
 20
480.284216
 30
0.0
 40
25.0
  1
MBE - 100
  7
ED25
100
AcDbText
  0
TEXT
  5
567
100
AcDbEntity
  8
V0-NAZVY
  6
CONTINUOUS
100
AcDbText
 10
-155.823885
 20
470.732072
 30
0.0
 40
25.0
  1
MBE - 100
  7
ED25
100
AcDbText
  0
CIRCLE
  5
5D8
100
AcDbEntity
  8
V0-OBRYS
  6
CONTINUOUS
100
AcDbCircle
 10
453.743281
 20
384.098381
 30
0.0
 40
50.0
  0
CIRCLE
  5
5D9
100
AcDbEntity
  8
V0-OBRYS
  6
CONTINUOUS
100
AcDbCircle
 10
453.743281
 20
384.098381
 30
0.0
 40
54.0
  0
ENDSEC
  0
SECTION
  2
OBJECTS
  0
DICTIONARY
  5
C
100
AcDbDictionary
  3
ACAD_GROUP
350
D
  3
ACAD_MLINESTYLE
350
1B
  0
DICTIONARY
  5
D
102
{ACAD_REACTORS
330
C
102
}
100
AcDbDictionary
  0
DICTIONARY
  5
1B
102
{ACAD_REACTORS
330
C
102
}
100
AcDbDictionary
  3
STANDARD
350
1C
  0
MLINESTYLE
  5
1C
102
{ACAD_REACTORS
330
1B
102
}
100
AcDbMlineStyle
  2
STANDARD
 70
     0
  3

 62
   256
 51
90.0
 52
90.0
 71
     2
 49
0.5
 62
   256
  6
BYLAYER
 49
-0.5
 62
   256
  6
BYLAYER
  0
ENDSEC
  0
EOF
