  0
SECTION
  2
HEADER
  9
$ACADVER
  1
AC1015
  9
$ACADMAINTVER
 70
    13
  9
$DWGCODEPAGE
  3
ANSI_1250
  9
$INSBASE
 10
0.0
 20
0.0
 30
0.0
  9
$EXTMIN
 10
911.6884211598627
 20
185.6267813389445
 30
0.0
  9
$EXTMAX
 10
2279.407541519384
 20
977.597513223738
 30
0.0
  9
$LIMMIN
 10
0.0
 20
0.0
  9
$LIMMAX
 10
420.0
 20
297.0
  9
$ORTHOMODE
 70
     0
  9
$REGENMODE
 70
     1
  9
$FILLMODE
 70
     1
  9
$QTEXTMODE
 70
     0
  9
$MIRRTEXT
 70
     1
  9
$LTSCALE
 40
1.0
  9
$ATTMODE
 70
     1
  9
$TEXTSIZE
 40
25.0
  9
$TRACEWID
 40
1.0
  9
$TEXTSTYLE
  7
Standard
  9
$CLAYER
  8
0
  9
$CELTYPE
  6
ByLayer
  9
$CECOLOR
 62
   256
  9
$CELTSCALE
 40
1.0
  9
$DISPSILH
 70
     0
  9
$DIMSCALE
 40
10.0
  9
$DIMASZ
 40
2.0
  9
$DIMEXO
 40
0.625
  9
$DIMDLI
 40
3.75
  9
$DIMRND
 40
0.0
  9
$DIMDLE
 40
0.0
  9
$DIMEXE
 40
1.25
  9
$DIMTP
 40
0.0
  9
$DIMTM
 40
0.0
  9
$DIMTXT
 40
2.0
  9
$DIMCEN
 40
2.5
  9
$DIMTSZ
 40
0.0
  9
$DIMTOL
 70
     0
  9
$DIMLIM
 70
     0
  9
$DIMTIH
 70
     0
  9
$DIMTOH
 70
     0
  9
$DIMSE1
 70
     0
  9
$DIMSE2
 70
     0
  9
$DIMTAD
 70
     1
  9
$DIMZIN
 70
     8
  9
$DIMBLK
  1

  9
$DIMASO
 70
     1
  9
$DIMSHO
 70
     1
  9
$DIMPOST
  1

  9
$DIMAPOST
  1

  9
$DIMALT
 70
     0
  9
$DIMALTD
 70
     3
  9
$DIMALTF
 40
0.03937007874016
  9
$DIMLFAC
 40
1.0
  9
$DIMTOFL
 70
     1
  9
$DIMTVP
 40
0.0
  9
$DIMTIX
 70
     0
  9
$DIMSOXD
 70
     0
  9
$DIMSAH
 70
     0
  9
$DIMBLK1
  1

  9
$DIMBLK2
  1

  9
$DIMSTYLE
  2
ISO-25
  9
$DIMCLRD
 70
     0
  9
$DIMCLRE
 70
     0
  9
$DIMCLRT
 70
     0
  9
$DIMTFAC
 40
1.0
  9
$DIMGAP
 40
0.625
  9
$DIMJUST
 70
     0
  9
$DIMSD1
 70
     0
  9
$DIMSD2
 70
     0
  9
$DIMTOLJ
 70
     0
  9
$DIMTZIN
 70
     8
  9
$DIMALTZ
 70
     0
  9
$DIMALTTZ
 70
     0
  9
$DIMUPT
 70
     0
  9
$DIMDEC
 70
     2
  9
$DIMTDEC
 70
     2
  9
$DIMALTU
 70
     2
  9
$DIMALTTD
 70
     3
  9
$DIMTXSTY
  7
Standard
  9
$DIMAUNIT
 70
     0
  9
$DIMADEC
 70
     0
  9
$DIMALTRND
 40
0.0
  9
$DIMAZIN
 70
     0
  9
$DIMDSEP
 70
    44
  9
$DIMATFIT
 70
     3
  9
$DIMFRAC
 70
     0
  9
$DIMLDRBLK
  1

  9
$DIMLUNIT
 70
     2
  9
$DIMLWD
 70
    -2
  9
$DIMLWE
 70
    -2
  9
$DIMTMOVE
 70
     0
  9
$LUNITS
 70
     2
  9
$LUPREC
 70
     4
  9
$SKETCHINC
 40
1.0
  9
$FILLETRAD
 40
10.0
  9
$AUNITS
 70
     0
  9
$AUPREC
 70
     0
  9
$MENU
  1
.
  9
$ELEVATION
 40
0.0
  9
$PELEVATION
 40
0.0
  9
$THICKNESS
 40
0.0
  9
$LIMCHECK
 70
     0
  9
$CHAMFERA
 40
10.0
  9
$CHAMFERB
 40
10.0
  9
$CHAMFERC
 40
20.0
  9
$CHAMFERD
 40
0.0
  9
$SKPOLY
 70
     0
  9
$TDCREATE
 40
2453639.692351574
  9
$TDUCREATE
 40
2453639.650684907
  9
$TDUPDATE
 40
2454043.783856146
  9
$TDUUPDATE
 40
2454043.742189479
  9
$TDINDWG
 40
0.1071649884
  9
$TDUSRTIMER
 40
0.1071644097
  9
$USRTIMER
 70
     1
  9
$ANGBASE
 50
0.0
  9
$ANGDIR
 70
     0
  9
$PDMODE
 70
     0
  9
$PDSIZE
 40
0.0
  9
$PLINEWID
 40
0.0
  9
$SPLFRAME
 70
     0
  9
$SPLINETYPE
 70
     6
  9
$SPLINESEGS
 70
     8
  9
$HANDSEED
  5
2B5
  9
$SURFTAB1
 70
     6
  9
$SURFTAB2
 70
     6
  9
$SURFTYPE
 70
     6
  9
$SURFU
 70
     6
  9
$SURFV
 70
     6
  9
$UCSBASE
  2

  9
$UCSNAME
  2

  9
$UCSORG
 10
0.0
 20
0.0
 30
0.0
  9
$UCSXDIR
 10
1.0
 20
0.0
 30
0.0
  9
$UCSYDIR
 10
0.0
 20
1.0
 30
0.0
  9
$UCSORTHOREF
  2

  9
$UCSORTHOVIEW
 70
     1
  9
$UCSORGTOP
 10
0.0
 20
0.0
 30
0.0
  9
$UCSORGBOTTOM
 10
0.0
 20
0.0
 30
0.0
  9
$UCSORGLEFT
 10
0.0
 20
0.0
 30
0.0
  9
$UCSORGRIGHT
 10
0.0
 20
0.0
 30
0.0
  9
$UCSORGFRONT
 10
0.0
 20
0.0
 30
0.0
  9
$UCSORGBACK
 10
0.0
 20
0.0
 30
0.0
  9
$PUCSBASE
  2

  9
$PUCSNAME
  2

  9
$PUCSORG
 10
0.0
 20
0.0
 30
0.0
  9
$PUCSXDIR
 10
1.0
 20
0.0
 30
0.0
  9
$PUCSYDIR
 10
0.0
 20
1.0
 30
0.0
  9
$PUCSORTHOREF
  2

  9
$PUCSORTHOVIEW
 70
     0
  9
$PUCSORGTOP
 10
0.0
 20
0.0
 30
0.0
  9
$PUCSORGBOTTOM
 10
0.0
 20
0.0
 30
0.0
  9
$PUCSORGLEFT
 10
0.0
 20
0.0
 30
0.0
  9
$PUCSORGRIGHT
 10
0.0
 20
0.0
 30
0.0
  9
$PUCSORGFRONT
 10
0.0
 20
0.0
 30
0.0
  9
$PUCSORGBACK
 10
0.0
 20
0.0
 30
0.0
  9
$USERI1
 70
     0
  9
$USERI2
 70
     0
  9
$USERI3
 70
     0
  9
$USERI4
 70
     0
  9
$USERI5
 70
     0
  9
$USERR1
 40
0.0
  9
$USERR2
 40
0.0
  9
$USERR3
 40
0.0
  9
$USERR4
 40
0.0
  9
$USERR5
 40
0.0
  9
$WORLDVIEW
 70
     1
  9
$SHADEDGE
 70
     3
  9
$SHADEDIF
 70
    70
  9
$TILEMODE
 70
     1
  9
$MAXACTVP
 70
    64
  9
$PINSBASE
 10
0.0
 20
0.0
 30
0.0
  9
$PLIMCHECK
 70
     0
  9
$PEXTMIN
 10
1.000000000000000E+20
 20
1.000000000000000E+20
 30
1.000000000000000E+20
  9
$PEXTMAX
 10
-1.000000000000000E+20
 20
-1.000000000000000E+20
 30
-1.000000000000000E+20
  9
$PLIMMIN
 10
0.0
 20
0.0
  9
$PLIMMAX
 10
420.0
 20
297.0
  9
$UNITMODE
 70
     0
  9
$VISRETAIN
 70
     1
  9
$PLINEGEN
 70
     0
  9
$PSLTSCALE
 70
     1
  9
$TREEDEPTH
 70
  3020
  9
$CMLSTYLE
  2
Standard
  9
$CMLJUST
 70
     0
  9
$CMLSCALE
 40
20.0
  9
$PROXYGRAPHICS
 70
     1
  9
$MEASUREMENT
 70
     1
  9
$CELWEIGHT
370
    -1
  9
$ENDCAPS
280
     0
  9
$JOINSTYLE
280
     0
  9
$LWDISPLAY
290
     0
  9
$INSUNITS
 70
     4
  9
$HYPERLINKBASE
  1

  9
$STYLESHEET
  1

  9
$XEDIT
290
     1
  9
$CEPSNTYPE
380
     0
  9
$PSTYLEMODE
290
     1
  9
$FINGERPRINTGUID
  2
{9B47308E-04D6-42FB-BD32-F27AC533D1CD}
  9
$VERSIONGUID
  2
{33AC3224-2C82-4137-92B4-BCBBACD6932B}
  9
$EXTNAMES
290
     1
  9
$PSVPSCALE
 40
0.0
  9
$OLESTARTUP
290
     0
  0
ENDSEC
  0
SECTION
  2
CLASSES
  0
CLASS
  1
ACDBDICTIONARYWDFLT
  2
AcDbDictionaryWithDefault
  3
AutoCAD 2000
 90
        0
280
     0
281
     0
  0
CLASS
  1
ACDBPLACEHOLDER
  2
AcDbPlaceHolder
  3
AutoCAD 2000
 90
        0
280
     0
281
     0
  0
CLASS
  1
LAYOUT
  2
AcDbLayout
  3
AutoCAD 2000
 90
        0
280
     0
281
     0
  0
CLASS
  1
DICTIONARYVAR
  2
AcDbDictionaryVar
  3
AutoCAD 2000
 90
        0
280
     0
281
     0
  0
CLASS
  1
DIMASSOC
  2
AcDbDimAssoc
  3
"AcDbDimAssoc|Product Desc:     AcDim ARX App For Dimension|Company:          Autodesk, Inc.|WEB Address:      www.autodesk.com"
 90
        0
280
     0
281
     0
  0
ENDSEC
  0
SECTION
  2
TABLES
  0
TABLE
  2
VPORT
  5
8
330
0
100
AcDbSymbolTable
 70
     2
  0
VPORT
  5
2B4
330
8
100
AcDbSymbolTableRecord
100
AcDbViewportTableRecord
  2
*Active
 70
     0
 10
0.0
 20
0.0
 11
1.0
 21
1.0
 12
1595.644584884353
 22
581.6115386016751
 13
0.0
 23
0.0
 14
10.0
 24
10.0
 15
10.0
 25
10.0
 16
0.0
 26
0.0
 36
1.0
 17
0.0
 27
0.0
 37
0.0
 40
802.564158054327
 41
2.226666666666666
 42
50.0
 43
0.0
 44
0.0
 50
0.0
 51
0.0
 71
     0
 72
   100
 73
     1
 74
     3
 75
     0
 76
     0
 77
     0
 78
     0
281
     0
 65
     1
110
0.0
120
0.0
130
0.0
111
1.0
121
0.0
131
0.0
112
0.0
122
1.0
132
0.0
 79
     1
146
0.0
  0
ENDTAB
  0
TABLE
  2
LTYPE
  5
5
330
0
100
AcDbSymbolTable
 70
     3
  0
LTYPE
  5
14
330
5
100
AcDbSymbolTableRecord
100
AcDbLinetypeTableRecord
  2
ByBlock
 70
     0
  3

 72
    65
 73
     0
 40
0.0
  0
LTYPE
  5
15
330
5
100
AcDbSymbolTableRecord
100
AcDbLinetypeTableRecord
  2
ByLayer
 70
     0
  3

 72
    65
 73
     0
 40
0.0
  0
LTYPE
  5
16
330
5
100
AcDbSymbolTableRecord
100
AcDbLinetypeTableRecord
  2
Continuous
 70
     0
  3
Solid line
 72
    65
 73
     0
 40
0.0
  0
LTYPE
  5
121
330
5
100
AcDbSymbolTableRecord
100
AcDbLinetypeTableRecord
  2
ACAD_ISO02W100
 70
     0
  3
ISO \U+00E8árkovaná __ __ __ __ __ __ __ __ __ __ __ 
 72
    65
 73
     2
 40
15.0
 49
12.0
 74
     0
 49
-3.0
 74
     0
  0
LTYPE
  5
122
330
5
100
AcDbSymbolTableRecord
100
AcDbLinetypeTableRecord
  2
ACAD_ISO03W100
 70
     0
  3
ISO p\U+00F8erušovaná __    __    __    __    __    _
 72
    65
 73
     2
 40
30.0
 49
12.0
 74
     0
 49
-18.0
 74
     0
  0
ENDTAB
  0
TABLE
  2
LAYER
  5
2
330
0
100
AcDbSymbolTable
 70
     5
  0
LAYER
  5
10
330
2
100
AcDbSymbolTableRecord
100
AcDbLayerTableRecord
  2
0
 70
     0
 62
    90
  6
Continuous
370
    -3
390
F
  0
LAYER
  5
2B
330
2
100
AcDbSymbolTableRecord
100
AcDbLayerTableRecord
  2
koty
 70
     0
 62
    41
  6
Continuous
370
    -3
390
F
  0
LAYER
  5
2C
330
2
100
AcDbSymbolTableRecord
100
AcDbLayerTableRecord
  2
popis
 70
     0
 62
   210
  6
Continuous
370
    -3
390
F
  0
LAYER
  5
4E
330
2
100
AcDbSymbolTableRecord
100
AcDbLayerTableRecord
  2
Defpoints
 70
     0
 62
    90
  6
Continuous
290
     0
370
    -3
390
F
  0
LAYER
  5
C4
330
2
100
AcDbSymbolTableRecord
100
AcDbLayerTableRecord
  2
srafy
 70
     0
 62
    90
  6
Continuous
370
    -3
390
F
  0
ENDTAB
  0
TABLE
  2
STYLE
  5
3
330
0
100
AcDbSymbolTable
 70
     2
  0
STYLE
  5
11
330
3
100
AcDbSymbolTableRecord
100
AcDbTextStyleTableRecord
  2
Standard
 70
     0
 40
0.0
 41
1.0
 50
0.0
 71
     0
 42
25.0
  3
txt
  4

  0
STYLE
  5
120
330
3
100
AcDbSymbolTableRecord
100
AcDbTextStyleTableRecord
  2

 70
     1
 40
0.0
 41
1.0
 50
0.0
 71
     0
 42
2.5
  3
ltypeshp.shx
  4

  0
ENDTAB
  0
TABLE
  2
VIEW
  5
6
330
0
100
AcDbSymbolTable
 70
     0
  0
ENDTAB
  0
TABLE
  2
UCS
  5
7
330
0
100
AcDbSymbolTable
 70
     0
  0
ENDTAB
  0
TABLE
  2
APPID
  5
9
330
0
100
AcDbSymbolTable
 70
     1
  0
APPID
  5
12
330
9
100
AcDbSymbolTableRecord
100
AcDbRegAppTableRecord
  2
ACAD
 70
     0
  0
ENDTAB
  0
TABLE
  2
DIMSTYLE
  5
A
330
0
100
AcDbSymbolTable
 70
     1
100
AcDbDimStyleTable
 71
     1
340
27
  0
DIMSTYLE
105
27
102
{ACAD_REACTORS
330
233
330
24B
330
263
330
27B
330
293
102
}
330
A
100
AcDbSymbolTableRecord
100
AcDbDimStyleTableRecord
  2
ISO-25
 70
     0
 40
10.0
 41
2.0
 42
0.625
 43
3.75
 44
1.25
 73
     0
 74
     0
 77
     1
 78
     8
140
2.0
141
2.5
143
0.03937007874016
147
0.625
171
     3
172
     1
271
     2
272
     2
274
     3
278
    44
283
     0
284
     8
340
11
  0
ENDTAB
  0
TABLE
  2
BLOCK_RECORD
  5
1
330
0
100
AcDbSymbolTable
 70
     6
  0
BLOCK_RECORD
  5
1F
330
1
100
AcDbSymbolTableRecord
100
AcDbBlockTableRecord
  2
*Model_Space
340
22
  0
BLOCK_RECORD
  5
1B
330
1
100
AcDbSymbolTableRecord
100
AcDbBlockTableRecord
  2
*Paper_Space
340
1E
  0
BLOCK_RECORD
  5
23
330
1
100
AcDbSymbolTableRecord
100
AcDbBlockTableRecord
  2
*Paper_Space0
340
26
  0
BLOCK_RECORD
  5
234
330
1
100
AcDbSymbolTableRecord
100
AcDbBlockTableRecord
  2
*D1
340
0
  0
BLOCK_RECORD
  5
24C
330
1
100
AcDbSymbolTableRecord
100
AcDbBlockTableRecord
  2
*D2
340
0
  0
BLOCK_RECORD
  5
264
330
1
100
AcDbSymbolTableRecord
100
AcDbBlockTableRecord
  2
*D3
340
0
  0
BLOCK_RECORD
  5
27C
330
1
100
AcDbSymbolTableRecord
100
AcDbBlockTableRecord
  2
*D4
340
0
  0
BLOCK_RECORD
  5
294
330
1
100
AcDbSymbolTableRecord
100
AcDbBlockTableRecord
  2
*D5
340
0
  0
ENDTAB
  0
ENDSEC
  0
SECTION
  2
BLOCKS
  0
BLOCK
  5
20
330
1F
100
AcDbEntity
  8
0
100
AcDbBlockBegin
  2
*Model_Space
 70
     0
 10
0.0
 20
0.0
 30
0.0
  3
*Model_Space
  1

  0
ENDBLK
  5
21
330
1F
100
AcDbEntity
  8
0
100
AcDbBlockEnd
  0
BLOCK
  5
1C
330
1B
100
AcDbEntity
 67
     1
  8
0
100
AcDbBlockBegin
  2
*Paper_Space
 70
     0
 10
0.0
 20
0.0
 30
0.0
  3
*Paper_Space
  1

  0
ENDBLK
  5
1D
330
1B
100
AcDbEntity
 67
     1
  8
0
100
AcDbBlockEnd
  0
BLOCK
  5
24
330
23
100
AcDbEntity
  8
0
100
AcDbBlockBegin
  2
*Paper_Space0
 70
     0
 10
0.0
 20
0.0
 30
0.0
  3
*Paper_Space0
  1

  0
ENDBLK
  5
25
330
23
100
AcDbEntity
  8
0
100
AcDbBlockEnd
  0
BLOCK
  5
23E
330
234
100
AcDbEntity
  8
0
100
AcDbBlockBegin
  2
*D1
 70
     1
 10
0.0
 20
0.0
 30
0.0
  3
*D1
  1

  0
LINE
  5
241
330
234
100
AcDbEntity
  8
koty
 62
     0
370
    -2
100
AcDbLine
 10
2092.066704922964
 20
318.0972066642221
 30
0.0
 11
2167.643247431465
 21
318.0972066642221
 31
0.0
  0
LINE
  5
242
330
234
100
AcDbEntity
  8
koty
 62
     0
370
    -2
100
AcDbLine
 10
2092.066704922964
 20
818.0972066642222
 30
0.0
 11
2167.643247431465
 21
818.0972066642222
 31
0.0
  0
LINE
  5
243
330
234
100
AcDbEntity
  8
koty
 62
     0
370
    -2
100
AcDbLine
 10
2155.143247431465
 20
338.0972066642221
 30
0.0
 11
2155.143247431465
 21
798.0972066642223
 31
0.0
  0
SOLID
  5
244
330
234
100
AcDbEntity
  8
koty
 62
     0
100
AcDbTrace
 10
2151.809914098131
 20
338.0972066642221
 30
0.0
 11
2158.476580764799
 21
338.0972066642221
 31
0.0
 12
2155.143247431465
 22
318.0972066642221
 32
0.0
 13
2155.143247431465
 23
318.0972066642221
 33
0.0
  0
SOLID
  5
245
330
234
100
AcDbEntity
  8
koty
 62
     0
100
AcDbTrace
 10
2151.809914098131
 20
798.0972066642223
 30
0.0
 11
2158.476580764799
 21
798.0972066642223
 31
0.0
 12
2155.143247431465
 22
818.0972066642222
 32
0.0
 13
2155.143247431465
 23
818.0972066642222
 33
0.0
  0
MTEXT
  5
246
330
234
100
AcDbEntity
  8
koty
 62
     0
100
AcDbMText
 10
2138.893247431465
 20
568.0972066642225
 30
0.0
 40
20.0
 41
0.0
 71
     5
 72
     1
  1
500
 11
0.0000000000000001
 21
1.0
 31
0.0
 73
     1
 44
1.0
  0
POINT
  5
247
330
234
100
AcDbEntity
  8
Defpoints
 62
     0
100
AcDbPoint
 10
2085.816704922965
 20
318.0972066642221
 30
0.0
  0
POINT
  5
248
330
234
100
AcDbEntity
  8
Defpoints
 62
     0
100
AcDbPoint
 10
2085.816704922965
 20
818.0972066642222
 30
0.0
  0
POINT
  5
249
330
234
100
AcDbEntity
  8
Defpoints
 62
     0
100
AcDbPoint
 10
2155.143247431465
 20
818.0972066642222
 30
0.0
  0
ENDBLK
  5
23F
330
234
100
AcDbEntity
  8
0
100
AcDbBlockEnd
  0
BLOCK
  5
256
330
24C
100
AcDbEntity
  8
0
100
AcDbBlockBegin
  2
*D2
 70
     1
 10
0.0
 20
0.0
 30
0.0
  3
*D2
  1

  0
LINE
  5
259
330
24C
100
AcDbEntity
  8
koty
 62
     0
370
    -2
100
AcDbLine
 10
2092.066704922964
 20
848.0972066642223
 30
0.0
 11
2213.486034210909
 21
848.0972066642223
 31
0.0
  0
LINE
  5
25A
330
24C
100
AcDbEntity
  8
koty
 62
     0
370
    -2
100
AcDbLine
 10
2092.066704922964
 20
288.0972066642221
 30
0.0
 11
2213.486034210909
 21
288.097206664222
 31
0.0
  0
LINE
  5
25B
330
24C
100
AcDbEntity
  8
koty
 62
     0
370
    -2
100
AcDbLine
 10
2200.986034210909
 20
828.0972066642222
 30
0.0
 11
2200.986034210909
 21
308.0972066642221
 31
0.0
  0
SOLID
  5
25C
330
24C
100
AcDbEntity
  8
koty
 62
     0
100
AcDbTrace
 10
2197.652700877575
 20
828.0972066642222
 30
0.0
 11
2204.319367544242
 21
828.0972066642222
 31
0.0
 12
2200.986034210909
 22
848.0972066642223
 32
0.0
 13
2200.986034210909
 23
848.0972066642223
 33
0.0
  0
SOLID
  5
25D
330
24C
100
AcDbEntity
  8
koty
 62
     0
100
AcDbTrace
 10
2197.652700877575
 20
308.0972066642221
 30
0.0
 11
2204.319367544242
 21
308.0972066642221
 31
0.0
 12
2200.986034210909
 22
288.097206664222
 32
0.0
 13
2200.986034210909
 23
288.097206664222
 33
0.0
  0
MTEXT
  5
25E
330
24C
100
AcDbEntity
  8
koty
 62
     0
100
AcDbMText
 10
2184.736034210909
 20
568.0972066642225
 30
0.0
 40
20.0
 41
0.0
 71
     5
 72
     1
  1
560
 11
0.0000000000000001
 21
1.0
 31
0.0
 73
     1
 44
1.0
  0
POINT
  5
25F
330
24C
100
AcDbEntity
  8
Defpoints
 62
     0
100
AcDbPoint
 10
2085.816704922965
 20
848.0972066642223
 30
0.0
  0
POINT
  5
260
330
24C
100
AcDbEntity
  8
Defpoints
 62
     0
100
AcDbPoint
 10
2085.816704922965
 20
288.0972066642221
 30
0.0
  0
POINT
  5
261
330
24C
100
AcDbEntity
  8
Defpoints
 62
     0
100
AcDbPoint
 10
2200.986034210909
 20
288.097206664222
 30
0.0
  0
ENDBLK
  5
257
330
24C
100
AcDbEntity
  8
0
100
AcDbBlockEnd
  0
BLOCK
  5
26E
330
264
100
AcDbEntity
  8
0
100
AcDbBlockBegin
  2
*D3
 70
     1
 10
0.0
 20
0.0
 30
0.0
  3
*D3
  1

  0
LINE
  5
271
330
264
100
AcDbEntity
  8
koty
 62
     0
370
    -2
100
AcDbLine
 10
2092.066704922964
 20
270.597206664222
 30
0.0
 11
2279.407541519384
 21
270.5972066642219
 31
0.0
  0
LINE
  5
272
330
264
100
AcDbEntity
  8
koty
 62
     0
370
    -2
100
AcDbLine
 10
2092.066704922964
 20
865.5972066642224
 30
0.0
 11
2279.407541519384
 21
865.5972066642224
 31
0.0
  0
LINE
  5
273
330
264
100
AcDbEntity
  8
koty
 62
     0
370
    -2
100
AcDbLine
 10
2266.907541519384
 20
290.5972066642219
 30
0.0
 11
2266.907541519384
 21
845.5972066642225
 31
0.0
  0
SOLID
  5
274
330
264
100
AcDbEntity
  8
koty
 62
     0
100
AcDbTrace
 10
2263.574208186051
 20
290.5972066642219
 30
0.0
 11
2270.240874852717
 21
290.5972066642219
 31
0.0
 12
2266.907541519384
 22
270.5972066642219
 32
0.0
 13
2266.907541519384
 23
270.5972066642219
 33
0.0
  0
SOLID
  5
275
330
264
100
AcDbEntity
  8
koty
 62
     0
100
AcDbTrace
 10
2263.574208186051
 20
845.5972066642225
 30
0.0
 11
2270.240874852717
 21
845.5972066642225
 31
0.0
 12
2266.907541519384
 22
865.5972066642224
 32
0.0
 13
2266.907541519384
 23
865.5972066642224
 33
0.0
  0
MTEXT
  5
276
330
264
100
AcDbEntity
  8
koty
 62
     0
100
AcDbMText
 10
2250.657541519384
 20
568.0972066642225
 30
0.0
 40
20.0
 41
0.0
 71
     5
 72
     1
  1
595
 11
0.0000000000000001
 21
1.0
 31
0.0
 73
     1
 44
1.0
  0
POINT
  5
277
330
264
100
AcDbEntity
  8
Defpoints
 62
     0
100
AcDbPoint
 10
2085.816704922965
 20
270.597206664222
 30
0.0
  0
POINT
  5
278
330
264
100
AcDbEntity
  8
Defpoints
 62
     0
100
AcDbPoint
 10
2085.816704922965
 20
865.5972066642224
 30
0.0
  0
POINT
  5
279
330
264
100
AcDbEntity
  8
Defpoints
 62
     0
100
AcDbPoint
 10
2266.907541519384
 20
865.5972066642224
 30
0.0
  0
ENDBLK
  5
26F
330
264
100
AcDbEntity
  8
0
100
AcDbBlockEnd
  0
BLOCK
  5
286
330
27C
100
AcDbEntity
  8
0
100
AcDbBlockBegin
  2
*D4
 70
     1
 10
0.0
 20
0.0
 30
0.0
  3
*D4
  1

  0
LINE
  5
289
330
27C
100
AcDbEntity
  8
koty
 62
     0
370
    -2
100
AcDbLine
 10
1710.816704922965
 20
264.3472066642218
 30
0.0
 11
1710.816704922965
 21
185.6267813389445
 31
0.0
  0
LINE
  5
28A
330
27C
100
AcDbEntity
  8
koty
 62
     0
370
    -2
100
AcDbLine
 10
2085.816704922965
 20
264.347206664222
 30
0.0
 11
2085.816704922965
 21
185.6267813389445
 31
0.0
  0
LINE
  5
28B
330
27C
100
AcDbEntity
  8
koty
 62
     0
370
    -2
100
AcDbLine
 10
1730.816704922966
 20
198.1267813389445
 30
0.0
 11
2065.816704922965
 21
198.1267813389445
 31
0.0
  0
SOLID
  5
28C
330
27C
100
AcDbEntity
  8
koty
 62
     0
100
AcDbTrace
 10
1730.816704922966
 20
201.4601146722778
 30
0.0
 11
1730.816704922966
 21
194.7934480056111
 31
0.0
 12
1710.816704922965
 22
198.1267813389445
 32
0.0
 13
1710.816704922965
 23
198.1267813389445
 33
0.0
  0
SOLID
  5
28D
330
27C
100
AcDbEntity
  8
koty
 62
     0
100
AcDbTrace
 10
2065.816704922965
 20
201.4601146722778
 30
0.0
 11
2065.816704922965
 21
194.7934480056111
 31
0.0
 12
2085.816704922965
 22
198.1267813389445
 32
0.0
 13
2085.816704922965
 23
198.1267813389445
 33
0.0
  0
MTEXT
  5
28E
330
27C
100
AcDbEntity
  8
koty
 62
     0
100
AcDbMText
 10
1898.316704922965
 20
214.3767813389445
 30
0.0
 40
20.0
 41
0.0
 71
     5
 72
     1
  1
375
 73
     1
 44
1.0
  0
POINT
  5
28F
330
27C
100
AcDbEntity
  8
Defpoints
 62
     0
100
AcDbPoint
 10
1710.816704922965
 20
270.5972066642218
 30
0.0
  0
POINT
  5
290
330
27C
100
AcDbEntity
  8
Defpoints
 62
     0
100
AcDbPoint
 10
2085.816704922965
 20
270.597206664222
 30
0.0
  0
POINT
  5
291
330
27C
100
AcDbEntity
  8
Defpoints
 62
     0
100
AcDbPoint
 10
2085.816704922965
 20
198.1267813389445
 30
0.0
  0
ENDBLK
  5
287
330
27C
100
AcDbEntity
  8
0
100
AcDbBlockEnd
  0
BLOCK
  5
29D
330
294
100
AcDbEntity
  8
0
100
AcDbBlockBegin
  2
*D5
 70
     1
 10
0.0
 20
0.0
 30
0.0
  3
*D5
  1

  0
LINE
  5
2A0
330
294
100
AcDbEntity
  8
koty
 62
     0
370
    -2
100
AcDbLine
 10
1493.710174386278
 20
810.5843197238648
 30
0.0
 11
1375.188421159862
 21
810.5843197238648
 31
0.0
  0
LINE
  5
2A1
330
294
100
AcDbEntity
  8
koty
 62
     0
370
    -2
100
AcDbLine
 10
1323.188421159862
 20
810.5843197238648
 30
0.0
 11
1303.188421159862
 21
810.5843197238648
 31
0.0
  0
MTEXT
  5
2A2
330
294
100
AcDbEntity
  8
koty
 62
     0
100
AcDbMText
 10
1464.126841052945
 20
826.8343197238648
 30
0.0
 40
20.0
 41
0.0
 71
     5
 72
     1
  1
\U+220512
 73
     1
 44
1.0
  0
LINE
  5
2A3
330
294
100
AcDbEntity
  8
koty
 62
     0
370
    -2
100
AcDbLine
 10
1343.188421159862
 20
810.5843197238648
 30
0.0
 11
1355.188421159862
 21
810.5843197238648
 31
0.0
  0
SOLID
  5
2A4
330
294
100
AcDbEntity
  8
koty
 62
     0
100
AcDbTrace
 10
1323.188421159862
 20
813.9176530571981
 30
0.0
 11
1323.188421159862
 21
807.2509863905315
 31
0.0
 12
1343.188421159862
 22
810.5843197238648
 32
0.0
 13
1343.188421159862
 23
810.5843197238648
 33
0.0
  0
SOLID
  5
2A5
330
294
100
AcDbEntity
  8
koty
 62
     0
100
AcDbTrace
 10
1375.188421159862
 20
813.9176530571981
 30
0.0
 11
1375.188421159862
 21
807.2509863905315
 31
0.0
 12
1355.188421159862
 22
810.5843197238648
 32
0.0
 13
1355.188421159862
 23
810.5843197238648
 33
0.0
  0
POINT
  5
2A6
330
294
100
AcDbEntity
  8
Defpoints
 62
     0
100
AcDbPoint
 10
1355.188421159862
 20
810.5843197238648
 30
0.0
  0
POINT
  5
2A7
330
294
100
AcDbEntity
  8
Defpoints
 62
     0
100
AcDbPoint
 10
1343.188421159862
 20
810.5843197238648
 30
0.0
  0
ENDBLK
  5
29E
330
294
100
AcDbEntity
  8
0
100
AcDbBlockEnd
  0
ENDSEC
  0
SECTION
  2
ENTITIES
  0
CIRCLE
  5
171
330
1F
100
AcDbEntity
  8
0
100
AcDbCircle
 10
1209.188421159862
 20
568.0972066642221
 30
0.0
 40
297.5
  0
CIRCLE
  5
173
330
1F
100
AcDbEntity
  8
0
100
AcDbCircle
 10
1209.188421159862
 20
568.0972066642221
 30
0.0
 40
250.0
  0
CIRCLE
  5
176
330
1F
100
AcDbEntity
  8
0
100
AcDbCircle
 10
1209.188421159862
 20
848.097206664222
 30
0.0
 40
6.0
  0
CIRCLE
  5
177
330
1F
100
AcDbEntity
  8
0
100
AcDbCircle
 10
1069.188421159862
 20
810.584319723865
 30
0.0
 40
6.0
  0
CIRCLE
  5
178
330
1F
100
AcDbEntity
  8
0
100
AcDbCircle
 10
966.7013081002199
 20
708.0972066642223
 30
0.0
 40
6.0
  0
CIRCLE
  5
179
330
1F
100
AcDbEntity
  8
0
100
AcDbCircle
 10
929.1884211598622
 20
568.0972066642222
 30
0.0
 40
6.0
  0
CIRCLE
  5
17A
330
1F
100
AcDbEntity
  8
0
100
AcDbCircle
 10
966.7013081002197
 20
428.0972066642225
 30
0.0
 40
6.0
  0
CIRCLE
  5
17B
330
1F
100
AcDbEntity
  8
0
100
AcDbCircle
 10
1069.188421159862
 20
325.6100936045795
 30
0.0
 40
6.0
  0
CIRCLE
  5
17C
330
1F
100
AcDbEntity
  8
0
100
AcDbCircle
 10
1209.188421159862
 20
288.097206664222
 30
0.0
 40
6.0
  0
CIRCLE
  5
17D
330
1F
100
AcDbEntity
  8
0
100
AcDbCircle
 10
1349.188421159862
 20
325.6100936045793
 30
0.0
 40
6.0
  0
CIRCLE
  5
17E
102
{ACAD_REACTORS
330
2AC
102
}
330
1F
100
AcDbEntity
  8
0
100
AcDbCircle
 10
1451.675534219505
 20
428.0972066642216
 30
0.0
 40
6.0
  0
CIRCLE
  5
17F
330
1F
100
AcDbEntity
  8
0
100
AcDbCircle
 10
1489.188421159862
 20
568.0972066642218
 30
0.0
 40
6.0
  0
CIRCLE
  5
180
330
1F
100
AcDbEntity
  8
0
100
AcDbCircle
 10
1451.675534219505
 20
708.0972066642219
 30
0.0
 40
6.0
  0
CIRCLE
  5
181
102
{ACAD_REACTORS
330
2A8
102
}
330
1F
100
AcDbEntity
  8
0
100
AcDbCircle
 10
1349.188421159862
 20
810.5843197238648
 30
0.0
 40
6.0
  0
CIRCLE
  5
182
330
1F
100
AcDbEntity
  8
0
100
AcDbCircle
 10
1209.188421159862
 20
568.0972066642221
 30
0.0
 40
93.23570043734799
  0
CIRCLE
  5
183
330
1F
100
AcDbEntity
  8
0
100
AcDbCircle
 10
1209.188421159862
 20
568.0972066642221
 30
0.0
 40
86.91973115927703
  0
CIRCLE
  5
184
330
1F
100
AcDbEntity
  8
0
100
AcDbCircle
 10
1209.188421159862
 20
568.0972066642221
 30
0.0
 40
38.91838853665194
  0
CIRCLE
  5
185
330
1F
100
AcDbEntity
  8
0
100
AcDbCircle
 10
1209.188421159862
 20
568.0972066642221
 30
0.0
 40
5.80026242181475
  0
LINE
  5
186
330
1F
100
AcDbEntity
  8
0
100
AcDbLine
 10
1158.628590507833
 20
809.4920750717669
 30
0.0
 11
1158.628590507833
 21
695.6744216993231
 31
0.0
  0
LINE
  5
187
330
1F
100
AcDbEntity
  8
0
100
AcDbLine
 10
1158.628590507833
 20
695.6744216993232
 30
0.0
 11
1168.355312843436
 21
651.9157791959819
 31
0.0
  0
ARC
  5
188
330
1F
100
AcDbEntity
  8
0
100
AcDbCircle
 10
1209.188421159862
 20
568.0972066642221
 30
0.0
 40
246.6328829841182
100
AcDbArc
 50
78.17047967493718
 51
101.8295203250628
  0
LINE
  5
189
330
1F
100
AcDbEntity
  8
0
100
AcDbLine
 10
1259.748251811891
 20
809.4920750717671
 30
0.0
 11
1259.748251811891
 21
695.6744216993255
 31
0.0
  0
LINE
  5
18A
330
1F
100
AcDbEntity
  8
0
100
AcDbLine
 10
1259.748251811891
 20
695.674421699324
 30
0.0
 11
1250.021529476288
 21
651.915779195982
 31
0.0
  0
LINE
  5
18B
330
1F
100
AcDbEntity
  8
0
100
AcDbLine
 10
1077.920999204582
 20
608.1110318361384
 30
0.0
 11
1118.197395725518
 21
588.432622235322
 31
0.0
  0
LINE
  5
18C
330
1F
100
AcDbEntity
  8
0
100
AcDbLine
 10
988.9347745373724
 20
679.0751779853494
 30
0.0
 11
1077.920999204582
 21
608.1110318361384
 31
0.0
  0
LINE
  5
18D
330
1F
100
AcDbEntity
  8
0
100
AcDbLine
 10
1140.96807679507
 20
687.1695665401553
 30
0.0
 11
1169.115448952487
 21
652.2818414529403
 31
0.0
  0
LINE
  5
18E
330
1F
100
AcDbEntity
  8
0
100
AcDbLine
 10
1051.981852127861
 20
758.1337126893656
 30
0.0
 11
1140.968076795069
 21
687.1695665401562
 31
0.0
  0
ARC
  5
18F
330
1F
100
AcDbEntity
  8
0
100
AcDbCircle
 10
1209.188421159862
 20
568.0972066642225
 30
0.0
 40
246.6328829841182
100
AcDbArc
 50
129.5990511035086
 51
153.2580917536342
  0
LINE
  5
190
330
1F
100
AcDbEntity
  8
0
100
AcDbLine
 10
1096.060454001082
 20
490.4164154852171
 30
0.0
 11
1136.557576638323
 21
509.6364825827424
 31
0.0
  0
LINE
  5
191
330
1F
100
AcDbEntity
  8
0
100
AcDbLine
 10
985.0964468292511
 20
465.0896049560649
 30
0.0
 11
1096.060454001082
 21
490.4164154852171
 31
0.0
  0
LINE
  5
192
330
1F
100
AcDbEntity
  8
0
100
AcDbLine
 10
1073.559212526356
 20
589.0007957609148
 30
0.0
 11
1118.385133840502
 21
589.2551566603977
 31
0.0
  0
LINE
  5
193
330
1F
100
AcDbEntity
  8
0
100
AcDbLine
 10
962.5952053545258
 20
563.6739852317625
 30
0.0
 11
1073.559212526354
 21
589.0007957609145
 31
0.0
  0
ARC
  5
194
330
1F
100
AcDbEntity
  8
0
100
AcDbCircle
 10
1209.188421159862
 20
568.0972066642224
 30
0.0
 40
246.6328829841182
100
AcDbArc
 50
181.02762253208
 51
204.6866631822056
  0
LINE
  5
195
330
1F
100
AcDbEntity
  8
0
100
AcDbLine
 10
1199.387575458124
 20
431.2170192914508
 30
0.0
 11
1209.610264875073
 21
474.8624605449624
 31
0.0
  0
LINE
  5
196
330
1F
100
AcDbEntity
  8
0
100
AcDbLine
 10
1150.003946435302
 20
328.6708569851703
 30
0.0
 11
1199.387575458124
 21
431.2170192914509
 31
0.0
  0
LINE
  5
197
330
1F
100
AcDbEntity
  8
0
100
AcDbLine
 10
1108.281908690331
 20
475.0911960363557
 30
0.0
 11
1136.031546129498
 21
510.2961039772089
 31
0.0
  0
LINE
  5
198
330
1F
100
AcDbEntity
  8
0
100
AcDbLine
 10
1058.898279667509
 20
372.5450337300756
 30
0.0
 11
1108.28190869033
 21
475.0911960363542
 31
0.0
  0
ARC
  5
199
330
1F
100
AcDbEntity
  8
0
100
AcDbCircle
 10
1209.188421159862
 20
568.0972066642225
 30
0.0
 40
246.6328829841182
100
AcDbArc
 50
232.4561939606514
 51
256.115234610777
  0
LINE
  5
19A
330
1F
100
AcDbEntity
  8
0
100
AcDbLine
 10
1310.094933629392
 20
475.0911960363559
 30
0.0
 11
1282.345296190225
 21
510.2961039772087
 31
0.0
  0
LINE
  5
19B
330
1F
100
AcDbEntity
  8
0
100
AcDbLine
 10
1359.478562652214
 20
372.5450337300753
 30
0.0
 11
1310.094933629392
 21
475.0911960363562
 31
0.0
  0
LINE
  5
19C
330
1F
100
AcDbEntity
  8
0
100
AcDbLine
 10
1218.9892668616
 20
431.2170192914497
 30
0.0
 11
1208.76657744465
 21
474.8624605449619
 31
0.0
  0
LINE
  5
19D
330
1F
100
AcDbEntity
  8
0
100
AcDbLine
 10
1268.372895884422
 20
328.67085698517
 30
0.0
 11
1218.989266861601
 21
431.2170192914484
 31
0.0
  0
ARC
  5
19E
330
1F
100
AcDbEntity
  8
0
100
AcDbCircle
 10
1209.188421159862
 20
568.0972066642219
 30
0.0
 40
246.6328829841182
100
AcDbArc
 50
283.8847653892228
 51
307.5438060393484
  0
LINE
  5
19F
330
1F
100
AcDbEntity
  8
0
100
AcDbLine
 10
1344.817629793367
 20
589.0007957609145
 30
0.0
 11
1299.991708479222
 21
589.255156660397
 31
0.0
  0
LINE
  5
1A0
330
1F
100
AcDbEntity
  8
0
100
AcDbLine
 10
1455.781636965198
 20
563.6739852317621
 30
0.0
 11
1344.817629793367
 21
589.0007957609145
 31
0.0
  0
LINE
  5
1A1
330
1F
100
AcDbEntity
  8
0
100
AcDbLine
 10
1322.316388318643
 20
490.4164154852164
 30
0.0
 11
1281.819265681401
 21
509.6364825827418
 31
0.0
  0
LINE
  5
1A2
330
1F
100
AcDbEntity
  8
0
100
AcDbLine
 10
1433.280395490473
 20
465.0896049560644
 30
0.0
 11
1322.316388318644
 21
490.416415485216
 31
0.0
  0
ARC
  5
1A3
330
1F
100
AcDbEntity
  8
0
100
AcDbCircle
 10
1209.188421159862
 20
568.0972066642219
 30
0.0
 40
246.6328829841182
100
AcDbArc
 50
335.3133368177942
 51
358.9723774679198
  0
LINE
  5
1A4
330
1F
100
AcDbEntity
  8
0
100
AcDbLine
 10
1277.408765524653
 20
687.1695665401542
 30
0.0
 11
1249.261393367238
 21
652.2818414529398
 31
0.0
  0
LINE
  5
1A5
330
1F
100
AcDbEntity
  8
0
100
AcDbLine
 10
1366.394990191864
 20
758.133712689365
 30
0.0
 11
1277.408765524653
 21
687.1695665401541
 31
0.0
  0
LINE
  5
1A6
330
1F
100
AcDbEntity
  8
0
100
AcDbLine
 10
1340.455843115143
 20
608.1110318361383
 30
0.0
 11
1300.179446594207
 21
588.4326222353215
 31
0.0
  0
LINE
  5
1A7
330
1F
100
AcDbEntity
  8
0
100
AcDbLine
 10
1429.442067782352
 20
679.075177985349
 30
0.0
 11
1340.455843115144
 21
608.1110318361393
 31
0.0
  0
ARC
  5
1A8
330
1F
100
AcDbEntity
  8
0
100
AcDbCircle
 10
1209.188421159862
 20
568.0972066642219
 30
0.0
 40
246.6328829841182
100
AcDbArc
 50
26.74190824636569
 51
50.40094889649132
  0
LINE
  5
1A9
330
1F
100
AcDbEntity
  8
0
100
AcDbLine
 10
1154.935167808637
 20
695.1708854357617
 30
0.0
 11
1162.701482407046
 21
660.2317381716992
 31
0.0
  0
LINE
  5
1AA
330
1F
100
AcDbEntity
  8
0
100
AcDbLine
 10
1154.935167808637
 20
808.9885388082054
 30
0.0
 11
1154.935167808637
 21
695.1708854357616
 31
0.0
  0
ARC
  5
1AB
330
1F
100
AcDbEntity
  8
0
100
AcDbCircle
 10
1205.494998460666
 20
567.5936704006605
 30
0.0
 40
246.6328829841182
100
AcDbArc
 50
97.33046995948939
 51
101.8295203250628
  0
LINE
  5
1AC
330
1F
100
AcDbEntity
  8
0
100
AcDbLine
 10
1076.011868321096
 20
604.9094479666482
 30
0.0
 11
1108.170611572862
 21
589.197195217652
 31
0.0
  0
LINE
  5
1AD
330
1F
100
AcDbEntity
  8
0
100
AcDbLine
 10
987.0256436538866
 20
675.873594115859
 30
0.0
 11
1076.011868321096
 21
604.9094479666482
 31
0.0
  0
ARC
  5
1AE
330
1F
100
AcDbEntity
  8
0
100
AcDbCircle
 10
1207.279290276376
 20
564.8956227947322
 30
0.0
 40
246.6328829841182
100
AcDbArc
 50
148.7590413880608
 51
153.2580917536342
  0
LINE
  5
1AF
330
1F
100
AcDbEntity
  8
0
100
AcDbLine
 10
1097.373229427744
 20
486.9276419639334
 30
0.0
 11
1129.708211745473
 21
502.273930521544
 31
0.0
  0
LINE
  5
1B0
330
1F
100
AcDbEntity
  8
0
100
AcDbLine
 10
986.4092222559134
 20
461.6008314347814
 30
0.0
 11
1097.373229427744
 21
486.9276419639336
 31
0.0
  0
ARC
  5
1B1
330
1F
100
AcDbEntity
  8
0
100
AcDbCircle
 10
1210.501196586524
 20
564.6084331429388
 30
0.0
 40
246.6328829841182
100
AcDbArc
 50
200.1876128166322
 51
204.6866631822056
  0
LINE
  5
1B2
330
1F
100
AcDbEntity
  8
0
100
AcDbLine
 10
1202.933710522919
 20
430.0681737379107
 30
0.0
 11
1211.096030707927
 21
464.9169353110099
 31
0.0
  0
LINE
  5
1B3
330
1F
100
AcDbEntity
  8
0
100
AcDbLine
 10
1153.550081500097
 20
327.5220114316301
 30
0.0
 11
1202.933710522919
 21
430.0681737379107
 31
0.0
  0
ARC
  5
1B4
330
1F
100
AcDbEntity
  8
0
100
AcDbCircle
 10
1212.734556224657
 20
566.9483611106824
 30
0.0
 40
246.6328829841182
100
AcDbArc
 50
251.6161842452036
 51
256.115234610777
  0
LINE
  5
1B5
330
1F
100
AcDbEntity
  8
0
100
AcDbLine
 10
1313.204116300557
 20
477.1473825845537
 30
0.0
 11
1291.047380772544
 21
505.2567889234112
 31
0.0
  0
LINE
  5
1B6
330
1F
100
AcDbEntity
  8
0
100
AcDbLine
 10
1362.587745323379
 20
374.601220278273
 30
0.0
 11
1313.204116300557
 21
477.1473825845539
 31
0.0
  0
ARC
  5
1B7
330
1F
100
AcDbEntity
  8
0
100
AcDbCircle
 10
1212.297603831026
 20
570.1533932124196
 30
0.0
 40
246.6328829841182
100
AcDbArc
 50
303.0447556737751
 51
307.5438060393484
  0
LINE
  5
1B8
330
1F
100
AcDbEntity
  8
0
100
AcDbLine
 10
1345.148582103746
 20
592.7136640014952
 30
0.0
 11
1309.357264630344
 21
592.9167588055577
 31
0.0
  0
LINE
  5
1B9
330
1F
100
AcDbEntity
  8
0
100
AcDbLine
 10
1456.112589275577
 20
567.3868534723428
 30
0.0
 11
1345.148582103746
 21
592.7136640014952
 31
0.0
  0
ARC
  5
1BA
330
1F
100
AcDbEntity
  8
0
100
AcDbCircle
 10
1209.519373470241
 20
571.8100749048028
 30
0.0
 40
246.6328829841182
100
AcDbArc
 50
354.4733271023464
 51
358.9723774679198
  0
LINE
  5
1BB
330
1F
100
AcDbEntity
  8
0
100
AcDbLine
 10
1274.712273634335
 20
689.7432509592511
 30
0.0
 11
1252.237966282838
 21
661.8870996986804
 31
0.0
  0
LINE
  5
1BC
330
1F
100
AcDbEntity
  8
0
100
AcDbLine
 10
1363.698498301545
 20
760.707397108462
 30
0.0
 11
1274.712273634335
 21
689.7432509592511
 31
0.0
  0
ARC
  5
1BD
330
1F
100
AcDbEntity
  8
0
100
AcDbCircle
 10
1206.491929269543
 20
570.6708910833189
 30
0.0
 40
246.6328829841182
100
AcDbArc
 50
45.90189853091788
 51
50.40094889649132
  0
LINE
  5
1BE
330
1F
100
AcDbEntity
  8
0
100
AcDbLine
 10
1710.816704922965
 20
865.597206664222
 30
0.0
 11
1715.816704922965
 21
865.597206664222
 31
0.0
  0
LINE
  5
1BF
330
1F
100
AcDbEntity
  8
0
100
AcDbLine
 10
1710.816704922964
 20
848.097206664222
 30
0.0
 11
1715.816704922965
 21
848.097206664222
 31
0.0
  0
LINE
  5
1C0
330
1F
100
AcDbEntity
  8
0
100
AcDbLine
 10
1710.816704922965
 20
818.0972066642221
 30
0.0
 11
1898.316704922964
 21
818.0972066642219
 31
0.0
  0
LINE
  5
1C2
330
1F
100
AcDbEntity
  8
0
100
AcDbLine
 10
1710.816704922965
 20
865.5972066642222
 30
0.0
 11
1710.816704922965
 21
568.0972066642221
 31
0.0
  0
LINE
  5
1C5
330
1F
100
AcDbEntity
  8
0
100
AcDbLine
 10
1715.816704922965
 20
865.5972066642222
 30
0.0
 11
1715.816704922965
 21
818.0972066642219
 31
0.0
  0
LINE
  5
1C8
330
1F
100
AcDbEntity
  8
0
100
AcDbLine
 10
1715.816704922965
 20
270.5972066642218
 30
0.0
 11
1715.816704922965
 21
318.097206664222
 31
0.0
  0
LINE
  5
1C9
330
1F
100
AcDbEntity
  8
0
100
AcDbLine
 10
1710.816704922965
 20
288.0972066642219
 30
0.0
 11
1715.816704922966
 21
288.097206664222
 31
0.0
  0
LINE
  5
1CA
330
1F
100
AcDbEntity
  8
0
100
AcDbLine
 10
1710.816704922965
 20
270.5972066642219
 30
0.0
 11
1715.816704922966
 21
270.5972066642219
 31
0.0
  0
LINE
  5
1CB
330
1F
100
AcDbEntity
  8
0
100
AcDbLine
 10
1710.816704922965
 20
318.0972066642219
 30
0.0
 11
1898.316704922965
 21
318.0972066642222
 31
0.0
  0
LINE
  5
1CE
102
{ACAD_REACTORS
330
292
102
}
330
1F
100
AcDbEntity
  8
0
100
AcDbLine
 10
1710.816704922965
 20
270.5972066642218
 30
0.0
 11
1710.816704922965
 21
568.0972066642219
 31
0.0
  0
LINE
  5
1CF
330
1F
100
AcDbEntity
  8
0
100
AcDbLine
 10
1884.311782594902
 20
778.8919417138076
 30
0.0
 11
1884.311782594902
 21
357.3024716146362
 31
0.0
  0
LINE
  5
1D0
330
1F
100
AcDbEntity
  8
0
100
AcDbLine
 10
1728.688518401891
 20
806.219888297201
 30
0.0
 11
1728.688518401891
 21
342.5491051358513
 31
0.0
  0
LINE
  5
1D1
330
1F
100
AcDbEntity
  8
0
100
AcDbLine
 10
1728.688518401891
 20
806.219888297201
 30
0.0
 11
1747.596313413941
 21
806.219888297201
 31
0.0
  0
LINE
  5
1D4
330
1F
100
AcDbEntity
  8
0
100
AcDbLine
 10
1747.59631341394
 20
806.2198882972012
 30
0.0
 11
1814.281315279804
 21
788.952301187081
 31
0.0
  0
LINE
  5
1D5
330
1F
100
AcDbEntity
  8
0
100
AcDbLine
 10
1728.688518401891
 20
342.5491051358513
 30
0.0
 11
1783.776253677902
 21
329.5581664642863
 31
0.0
  0
LINE
  5
1D6
330
1F
100
AcDbEntity
  8
0
100
AcDbLine
 10
1728.688518401891
 20
493.9863603708984
 30
0.0
 11
1814.281315279803
 21
441.4321113073133
 31
0.0
  0
LINE
  5
1D7
330
1F
100
AcDbEntity
  8
0
100
AcDbLine
 10
1814.281315279805
 20
453.0419995848361
 30
0.0
 11
1728.688518401891
 21
500.7821882476608
 31
0.0
  0
LINE
  5
1D8
330
1F
100
AcDbEntity
  8
0
100
AcDbLine
 10
1728.688518401891
 20
704.45585472482
 30
0.0
 11
1814.281315279804
 21
632.8305693376941
 31
0.0
  0
LINE
  5
1D9
330
1F
100
AcDbEntity
  8
0
100
AcDbLine
 10
1728.688518401891
 20
684.7012706978712
 30
0.0
 11
1814.281315279804
 21
624.7319034787672
 31
0.0
  0
LINE
  5
1DA
330
1F
100
AcDbEntity
  8
0
100
AcDbLine
 10
1783.776253677902
 20
329.5581664642863
 30
0.0
 11
1814.281315279804
 21
329.5581664642863
 31
0.0
  0
LINE
  5
1DC
330
1F
100
AcDbEntity
  8
0
100
AcDbLine
 10
1814.281315279804
 20
788.952301187081
 30
0.0
 11
1814.281315279804
 21
329.5581664642863
 31
0.0
  0
LINE
  5
1DE
330
1F
100
AcDbEntity
  8
0
100
AcDbLine
 10
1814.281315279804
 20
580.7639280448629
 30
0.0
 11
1884.311782594902
 21
580.7639280448629
 31
0.0
  0
LINE
  5
1E0
330
1F
100
AcDbEntity
  8
0
100
AcDbLine
 10
1814.281315279804
 20
680.7639280448629
 30
0.0
 11
1884.311782594902
 21
680.7639280448629
 31
0.0
  0
LINE
  5
1E1
330
1F
100
AcDbEntity
  8
0
100
AcDbLine
 10
1889.311782594901
 20
778.8919417138076
 30
0.0
 11
1889.311782594901
 21
357.3024716146362
 31
0.0
  0
LINE
  5
1E2
330
1F
100
AcDbEntity
  8
0
100
AcDbLine
 10
1814.281315279804
 20
455.4304852835811
 30
0.0
 11
1884.311782594902
 21
455.4304852835811
 31
0.0
  0
LINE
  5
1E3
330
1F
100
AcDbEntity
  8
0
100
AcDbLine
 10
1814.281315279804
 20
555.4304852835811
 30
0.0
 11
1884.311782594902
 21
555.4304852835811
 31
0.0
  0
LWPOLYLINE
  5
1E4
102
{ACAD_REACTORS
330
1E6
102
}
330
1F
100
AcDbEntity
  8
0
100
AcDbPolyline
 90
        4
 70
     1
 43
0.0
 10
1814.281315279804
 20
680.7639280448629
 10
1884.311782594902
 20
680.7639280448629
 10
1884.311782594902
 20
580.7639280448629
 10
1814.281315279804
 20
580.7639280448629
  0
LWPOLYLINE
  5
1E5
102
{ACAD_REACTORS
330
1E6
102
}
330
1F
100
AcDbEntity
  8
0
100
AcDbPolyline
 90
        4
 70
     1
 43
0.0
 10
1814.281315279804
 20
555.4304852835811
 10
1884.311782594902
 20
555.4304852835811
 10
1884.311782594902
 20
455.4304852835811
 10
1814.281315279804
 20
455.4304852835811
  0
HATCH
  5
1E6
330
1F
100
AcDbEntity
  8
srafy
100
AcDbHatch
 10
0.0
 20
0.0
 30
0.0
210
0.0
220
0.0
230
1.0
  2
LINE
 70
     0
 71
     1
 91
        2
 92
        1
 93
        4
 72
     1
 10
1814.281315279804
 20
680.7639280448629
 11
1884.311782594902
 21
680.7639280448629
 72
     1
 10
1884.311782594902
 20
680.7639280448629
 11
1884.311782594902
 21
580.7639280448629
 72
     1
 10
1884.311782594902
 20
580.7639280448629
 11
1814.281315279804
 21
580.7639280448629
 72
     1
 10
1814.281315279804
 20
580.7639280448629
 11
1814.281315279804
 21
680.7639280448629
 97
        1
330
1E4
 92
        1
 93
        4
 72
     1
 10
1814.281315279804
 20
555.4304852835811
 11
1884.311782594902
 21
555.4304852835811
 72
     1
 10
1884.311782594902
 20
555.4304852835811
 11
1884.311782594902
 21
455.4304852835811
 72
     1
 10
1884.311782594902
 20
455.4304852835811
 11
1814.281315279804
 21
455.4304852835811
 72
     1
 10
1814.281315279804
 20
455.4304852835811
 11
1814.281315279804
 21
555.4304852835811
 97
        1
330
1E5
 75
     0
 76
     1
 52
0.0
 41
2.0
 77
     0
 78
     1
 53
0.0
 43
-100.0
 44
0.0
 45
0.0
 46
6.349999999999999
 79
     0
 98
        1
 10
-100.0
 20
0.0
  0
LINE
  5
1E7
330
1F
100
AcDbEntity
  8
0
100
AcDbLine
 10
1825.610631499896
 20
741.089155492984
 30
0.0
 11
1825.610631499896
 21
680.763928044863
 31
0.0
  0
LINE
  5
1E8
330
1F
100
AcDbEntity
  8
0
100
AcDbLine
 10
1825.610631499896
 20
741.089155492984
 30
0.0
 11
1876.561238793492
 21
770.1682215995011
 31
0.0
  0
LINE
  5
1E9
330
1F
100
AcDbEntity
  8
0
100
AcDbLine
 10
1876.561238793492
 20
770.1682215995011
 30
0.0
 11
1876.561238793492
 21
818.0972066642219
 31
0.0
  0
LINE
  5
1EA
330
1F
100
AcDbEntity
  8
0
100
AcDbLine
 10
1884.311782594902
 20
778.8919417138076
 30
0.0
 11
1889.311782594901
 21
778.8919417138076
 31
0.0
  0
LINE
  5
1EB
330
1F
100
AcDbEntity
  8
0
100
AcDbLine
 10
1830.610631499897
 20
738.1857833892123
 30
0.0
 11
1830.610631499897
 21
680.763928044863
 31
0.0
  0
LINE
  5
1EC
330
1F
100
AcDbEntity
  8
0
100
AcDbLine
 10
1830.610631499897
 20
738.1857833892123
 30
0.0
 11
1881.561238793491
 21
767.2648494957287
 31
0.0
  0
LINE
  5
1ED
330
1F
100
AcDbEntity
  8
0
100
AcDbLine
 10
1881.561238793491
 20
767.2648494957287
 30
0.0
 11
1881.561238793492
 21
818.0972066642219
 31
0.0
  0
LINE
  5
1EE
330
1F
100
AcDbEntity
  8
0
100
AcDbLine
 10
1830.610631499897
 20
398.0086299392315
 30
0.0
 11
1830.610631499897
 21
455.4304852835809
 31
0.0
  0
LINE
  5
1EF
330
1F
100
AcDbEntity
  8
0
100
AcDbLine
 10
1825.610631499896
 20
395.1052578354599
 30
0.0
 11
1825.610631499896
 21
455.4304852835809
 31
0.0
  0
LINE
  5
1F0
330
1F
100
AcDbEntity
  8
0
100
AcDbLine
 10
1830.610631499897
 20
398.0086299392315
 30
0.0
 11
1881.561238793491
 21
368.9295638327152
 31
0.0
  0
LINE
  5
1F1
330
1F
100
AcDbEntity
  8
0
100
AcDbLine
 10
1825.610631499896
 20
395.1052578354599
 30
0.0
 11
1876.561238793492
 21
366.0261917289428
 31
0.0
  0
LINE
  5
1F2
330
1F
100
AcDbEntity
  8
0
100
AcDbLine
 10
1876.561238793492
 20
366.0261917289428
 30
0.0
 11
1876.561238793492
 21
318.0972066642219
 31
0.0
  0
LINE
  5
1F3
330
1F
100
AcDbEntity
  8
0
100
AcDbLine
 10
1881.561238793491
 20
368.9295638327152
 30
0.0
 11
1881.561238793492
 21
318.0972066642219
 31
0.0
  0
LINE
  5
1F4
330
1F
100
AcDbEntity
  8
0
100
AcDbLine
 10
1884.311782594902
 20
357.3024716146362
 30
0.0
 11
1889.311782594901
 21
357.3024716146362
 31
0.0
  0
LINE
  5
1F5
330
1F
100
AcDbEntity
  8
0
100
AcDbLine
 10
1907.321627251028
 20
778.8919417138076
 30
0.0
 11
1907.321627251029
 21
357.3024716146362
 31
0.0
  0
LINE
  5
1F6
330
1F
100
AcDbEntity
  8
0
100
AcDbLine
 10
1912.321627251028
 20
778.8919417138076
 30
0.0
 11
1912.321627251028
 21
357.3024716146362
 31
0.0
  0
LINE
  5
1F7
330
1F
100
AcDbEntity
  8
0
100
AcDbLine
 10
1912.321627251028
 20
357.3024716146362
 30
0.0
 11
1907.321627251028
 21
357.3024716146362
 31
0.0
  0
LINE
  5
1F8
330
1F
100
AcDbEntity
  8
0
100
AcDbLine
 10
1915.072171052439
 20
368.9295638327152
 30
0.0
 11
1915.072171052438
 21
318.0972066642219
 31
0.0
  0
LINE
  5
1F9
330
1F
100
AcDbEntity
  8
0
100
AcDbLine
 10
1920.072171052438
 20
366.0261917289428
 30
0.0
 11
1920.072171052438
 21
318.0972066642219
 31
0.0
  0
LINE
  5
1FA
330
1F
100
AcDbEntity
  8
0
100
AcDbLine
 10
1971.022778346033
 20
395.10525783546
 30
0.0
 11
1920.072171052438
 21
366.0261917289428
 31
0.0
  0
LINE
  5
1FB
330
1F
100
AcDbEntity
  8
0
100
AcDbLine
 10
1966.022778346033
 20
398.0086299392316
 30
0.0
 11
1915.072171052439
 21
368.9295638327152
 31
0.0
  0
LINE
  5
1FC
330
1F
100
AcDbEntity
  8
0
100
AcDbLine
 10
1971.022778346033
 20
395.10525783546
 30
0.0
 11
1971.022778346033
 21
455.4304852835809
 31
0.0
  0
LINE
  5
1FD
330
1F
100
AcDbEntity
  8
0
100
AcDbLine
 10
1966.022778346033
 20
398.0086299392316
 30
0.0
 11
1966.022778346033
 21
455.4304852835809
 31
0.0
  0
LINE
  5
1FE
330
1F
100
AcDbEntity
  8
0
100
AcDbLine
 10
1966.022778346033
 20
738.1857833892125
 30
0.0
 11
1966.022778346033
 21
680.7639280448632
 31
0.0
  0
LINE
  5
1FF
330
1F
100
AcDbEntity
  8
0
100
AcDbLine
 10
1966.022778346033
 20
738.1857833892125
 30
0.0
 11
1915.072171052439
 21
767.2648494957287
 31
0.0
  0
LINE
  5
200
330
1F
100
AcDbEntity
  8
0
100
AcDbLine
 10
1915.072171052439
 20
767.2648494957287
 30
0.0
 11
1915.072171052438
 21
818.0972066642219
 31
0.0
  0
LINE
  5
201
330
1F
100
AcDbEntity
  8
0
100
AcDbLine
 10
1971.022778346033
 20
741.0891554929841
 30
0.0
 11
1971.022778346033
 21
680.7639280448632
 31
0.0
  0
LINE
  5
202
330
1F
100
AcDbEntity
  8
0
100
AcDbLine
 10
1912.321627251028
 20
778.8919417138076
 30
0.0
 11
1907.321627251028
 21
778.8919417138076
 31
0.0
  0
LINE
  5
203
330
1F
100
AcDbEntity
  8
0
100
AcDbLine
 10
1920.072171052438
 20
770.1682215995011
 30
0.0
 11
1920.072171052438
 21
818.0972066642219
 31
0.0
  0
LINE
  5
204
330
1F
100
AcDbEntity
  8
0
100
AcDbLine
 10
1971.022778346033
 20
741.0891554929841
 30
0.0
 11
1920.072171052438
 21
770.1682215995011
 31
0.0
  0
HATCH
  5
205
330
1F
100
AcDbEntity
  8
srafy
100
AcDbHatch
 10
0.0
 20
0.0
 30
0.0
210
0.0
220
0.0
230
1.0
  2
LINE
 70
     0
 71
     1
 91
        2
 92
        1
 93
        4
 72
     1
 10
1982.352094566126
 20
680.763928044863
 11
1912.321627251028
 21
680.7639280448629
 72
     1
 10
1912.321627251028
 20
680.7639280448629
 11
1912.321627251028
 21
580.7639280448629
 72
     1
 10
1912.321627251028
 20
580.7639280448629
 11
1982.352094566127
 21
580.763928044863
 72
     1
 10
1982.352094566127
 20
580.763928044863
 11
1982.352094566126
 21
680.763928044863
 97
        1
330
207
 92
        1
 93
        4
 72
     1
 10
1982.352094566127
 20
555.4304852835813
 11
1912.321627251028
 21
555.4304852835811
 72
     1
 10
1912.321627251028
 20
555.4304852835811
 11
1912.321627251028
 21
455.4304852835811
 72
     1
 10
1912.321627251028
 20
455.4304852835811
 11
1982.352094566127
 21
455.4304852835812
 72
     1
 10
1982.352094566127
 20
455.4304852835812
 11
1982.352094566127
 21
555.4304852835813
 97
        1
330
206
 75
     0
 76
     1
 52
0.0
 41
2.0
 77
     0
 78
     1
 53
180.0
 43
3896.633409845931
 44
0.000000000001819
 45
-0.0000000000000058
 46
6.349999999999999
 79
     0
 98
        1
 10
3896.633409845931
 20
0.000000000001819
  0
LWPOLYLINE
  5
206
102
{ACAD_REACTORS
330
205
102
}
330
1F
100
AcDbEntity
  8
0
100
AcDbPolyline
 90
        4
 70
     1
 43
0.0
 10
1982.352094566127
 20
555.4304852835813
 10
1912.321627251028
 20
555.4304852835811
 10
1912.321627251028
 20
455.4304852835811
 10
1982.352094566127
 20
455.4304852835812
  0
LWPOLYLINE
  5
207
102
{ACAD_REACTORS
330
205
102
}
330
1F
100
AcDbEntity
  8
0
100
AcDbPolyline
 90
        4
 70
     1
 43
0.0
 10
1982.352094566126
 20
680.763928044863
 10
1912.321627251028
 20
680.7639280448629
 10
1912.321627251028
 20
580.7639280448629
 10
1982.352094566127
 20
580.763928044863
  0
LINE
  5
208
330
1F
100
AcDbEntity
  8
0
100
AcDbLine
 10
1982.352094566127
 20
555.4304852835813
 30
0.0
 11
1912.321627251028
 21
555.4304852835811
 31
0.0
  0
LINE
  5
209
330
1F
100
AcDbEntity
  8
0
100
AcDbLine
 10
1982.352094566127
 20
455.4304852835812
 30
0.0
 11
1912.321627251028
 21
455.4304852835811
 31
0.0
  0
LINE
  5
20A
330
1F
100
AcDbEntity
  8
0
100
AcDbLine
 10
1982.352094566126
 20
680.763928044863
 30
0.0
 11
1912.321627251028
 21
680.7639280448629
 31
0.0
  0
LINE
  5
20B
330
1F
100
AcDbEntity
  8
0
100
AcDbLine
 10
1982.352094566127
 20
580.763928044863
 30
0.0
 11
1912.321627251028
 21
580.7639280448629
 31
0.0
  0
LINE
  5
20C
330
1F
100
AcDbEntity
  8
0
100
AcDbLine
 10
2067.944891444039
 20
704.4558547248201
 30
0.0
 11
1982.352094566126
 21
632.8305693376941
 31
0.0
  0
LINE
  5
20D
330
1F
100
AcDbEntity
  8
0
100
AcDbLine
 10
2067.944891444039
 20
684.7012706978713
 30
0.0
 11
1982.352094566127
 21
624.7319034787673
 31
0.0
  0
LINE
  5
20E
330
1F
100
AcDbEntity
  8
0
100
AcDbLine
 10
2067.944891444039
 20
806.2198882972012
 30
0.0
 11
2067.94489144404
 21
342.5491051358514
 31
0.0
  0
LINE
  5
20F
330
1F
100
AcDbEntity
  8
0
100
AcDbLine
 10
2067.944891444039
 20
806.2198882972012
 30
0.0
 11
2049.037096431989
 21
806.2198882972012
 31
0.0
  0
LINE
  5
210
330
1F
100
AcDbEntity
  8
0
100
AcDbLine
 10
2049.03709643199
 20
806.2198882972014
 30
0.0
 11
1982.352094566126
 21
788.9523011870811
 31
0.0
  0
LINE
  5
211
330
1F
100
AcDbEntity
  8
0
100
AcDbLine
 10
1982.352094566126
 20
788.9523011870811
 30
0.0
 11
1982.352094566127
 21
329.5581664642863
 31
0.0
  0
LINE
  5
212
330
1F
100
AcDbEntity
  8
0
100
AcDbLine
 10
2067.944891444039
 20
493.9863603708986
 30
0.0
 11
1982.352094566127
 21
441.4321113073133
 31
0.0
  0
LINE
  5
213
330
1F
100
AcDbEntity
  8
0
100
AcDbLine
 10
1982.352094566125
 20
453.0419995848361
 30
0.0
 11
2067.944891444039
 21
500.7821882476609
 31
0.0
  0
LINE
  5
214
330
1F
100
AcDbEntity
  8
0
100
AcDbLine
 10
2012.857156168028
 20
329.5581664642865
 30
0.0
 11
1982.352094566127
 21
329.5581664642863
 31
0.0
  0
LINE
  5
215
330
1F
100
AcDbEntity
  8
0
100
AcDbLine
 10
2067.944891444039
 20
342.5491051358514
 30
0.0
 11
2012.857156168028
 21
329.5581664642865
 31
0.0
  0
LINE
  5
217
102
{ACAD_REACTORS
330
27A
330
292
102
}
330
1F
100
AcDbEntity
  8
0
100
AcDbLine
 10
2085.816704922965
 20
270.597206664222
 30
0.0
 11
2085.816704922965
 21
568.0972066642222
 31
0.0
  0
LINE
  5
219
102
{ACAD_REACTORS
330
24A
102
}
330
1F
100
AcDbEntity
  8
0
100
AcDbLine
 10
2085.816704922965
 20
318.0972066642221
 30
0.0
 11
1898.316704922965
 21
318.0972066642222
 31
0.0
  0
LINE
  5
21A
330
1F
100
AcDbEntity
  8
0
100
AcDbLine
 10
2085.816704922965
 20
270.5972066642221
 30
0.0
 11
2080.816704922965
 21
270.5972066642221
 31
0.0
  0
LINE
  5
21B
102
{ACAD_REACTORS
330
262
102
}
330
1F
100
AcDbEntity
  8
0
100
AcDbLine
 10
2085.816704922965
 20
288.0972066642221
 30
0.0
 11
2080.816704922965
 21
288.0972066642222
 31
0.0
  0
LINE
  5
21C
330
1F
100
AcDbEntity
  8
0
100
AcDbLine
 10
2080.816704922965
 20
270.597206664222
 30
0.0
 11
2080.816704922965
 21
318.0972066642222
 31
0.0
  0
LINE
  5
21D
330
1F
100
AcDbEntity
  8
0
100
AcDbLine
 10
2080.816704922965
 20
865.5972066642222
 30
0.0
 11
2080.816704922965
 21
818.0972066642221
 31
0.0
  0
LINE
  5
21E
102
{ACAD_REACTORS
330
262
102
}
330
1F
100
AcDbEntity
  8
0
100
AcDbLine
 10
2085.816704922965
 20
848.0972066642223
 30
0.0
 11
2080.816704922965
 21
848.097206664222
 31
0.0
  0
LINE
  5
21F
330
1F
100
AcDbEntity
  8
0
100
AcDbLine
 10
2085.816704922965
 20
865.5972066642222
 30
0.0
 11
2080.816704922965
 21
865.5972066642222
 31
0.0
  0
LINE
  5
220
102
{ACAD_REACTORS
330
24A
102
}
330
1F
100
AcDbEntity
  8
0
100
AcDbLine
 10
2085.816704922965
 20
818.0972066642222
 30
0.0
 11
1898.316704922965
 21
818.0972066642219
 31
0.0
  0
LINE
  5
223
102
{ACAD_REACTORS
330
27A
102
}
330
1F
100
AcDbEntity
  8
0
100
AcDbLine
 10
2085.816704922965
 20
865.5972066642224
 30
0.0
 11
2085.816704922965
 21
568.0972066642222
 31
0.0
  0
LINE
  5
225
330
1F
100
AcDbEntity
  8
0
100
AcDbLine
 10
1165.902722856389
 20
914.9459121053157
 30
0.0
 11
1252.474119463335
 21
914.9459121053157
 31
0.0
  0
LINE
  5
226
330
1F
100
AcDbEntity
  8
0
100
AcDbLine
 10
1165.902722856389
 20
914.9459121053155
 30
0.0
 11
1165.902722856389
 21
862.4313676486051
 31
0.0
  0
LINE
  5
227
330
1F
100
AcDbEntity
  8
0
100
AcDbLine
 10
1252.474119463335
 20
914.9459121053155
 30
0.0
 11
1252.474119463335
 21
862.4313676486051
 31
0.0
  0
LINE
  5
228
330
1F
100
AcDbEntity
  8
0
100
AcDbLine
 10
1847.155001058819
 20
904.9459121053155
 30
0.0
 11
1847.15500105882
 21
818.0972066642221
 31
0.0
  0
LINE
  5
229
330
1F
100
AcDbEntity
  8
0
100
AcDbLine
 10
1857.15500105882
 20
914.9459121053155
 30
0.0
 11
1898.316704922964
 21
914.9459121053157
 31
0.0
  0
LINE
  5
22A
330
1F
100
AcDbEntity
  8
0
100
AcDbLine
 10
1949.478408787109
 20
904.9459121053159
 30
0.0
 11
1949.47840878711
 21
818.0972066642222
 31
0.0
  0
LINE
  5
22B
330
1F
100
AcDbEntity
  8
0
100
AcDbLine
 10
1939.47840878711
 20
914.9459121053158
 30
0.0
 11
1898.316704922965
 21
914.9459121053157
 31
0.0
  0
LINE
  5
22C
330
1F
100
AcDbEntity
  8
0
100
AcDbLine
 10
1847.155001058819
 20
893.5708379922976
 30
0.0
 11
1949.47840878711
 21
893.5708379922974
 31
0.0
  0
LINE
  5
22D
330
1F
100
AcDbEntity
  8
0
100
AcDbLine
 10
1865.318803103851
 20
893.5708379922976
 30
0.0
 11
1865.318803103851
 21
818.0972066642219
 31
0.0
  0
LINE
  5
22E
330
1F
100
AcDbEntity
  8
0
100
AcDbLine
 10
1931.314606742079
 20
893.570837992298
 30
0.0
 11
1931.314606742079
 21
818.0972066642221
 31
0.0
  0
LINE
  5
22F
330
1F
100
AcDbEntity
  8
0
100
AcDbLine
 10
1865.318803103851
 20
824.7463923457235
 30
0.0
 11
1931.314606742079
 21
824.7463923457235
 31
0.0
  0
ARC
  5
230
330
1F
100
AcDbEntity
  8
0
100
AcDbCircle
 10
1857.15500105882
 20
904.9459121053155
 30
0.0
 40
10.0
100
AcDbArc
 50
90.0
 51
180.0000000000002
  0
ARC
  5
231
330
1F
100
AcDbEntity
  8
0
100
AcDbCircle
 10
1939.47840878711
 20
904.9459121053159
 30
0.0
 40
10.0
100
AcDbArc
 50
0.0
 51
90.00000000000026
  0
DIMENSION
  5
233
102
{ACAD_XDICTIONARY
360
240
102
}
102
{ACAD_REACTORS
330
24A
102
}
330
1F
100
AcDbEntity
  8
koty
100
AcDbDimension
  2
*D1
 10
2155.143247431465
 20
818.0972066642222
 30
0.0
 11
2138.893247431465
 21
568.0972066642225
 31
0.0
 70
    32
 71
     5
 42
500.0000000000001
  3
ISO-25
100
AcDbAlignedDimension
 13
2085.816704922965
 23
318.0972066642221
 33
0.0
 14
2085.816704922965
 24
818.0972066642222
 34
0.0
 50
90.0
100
AcDbRotatedDimension
  0
DIMENSION
  5
24B
102
{ACAD_XDICTIONARY
360
258
102
}
102
{ACAD_REACTORS
330
262
102
}
330
1F
100
AcDbEntity
  8
koty
100
AcDbDimension
  2
*D2
 10
2200.986034210909
 20
288.097206664222
 30
0.0
 11
2184.736034210909
 21
568.0972066642225
 31
0.0
 70
    32
 71
     5
 42
560.0000000000002
  3
ISO-25
100
AcDbAlignedDimension
 13
2085.816704922965
 23
848.0972066642223
 33
0.0
 14
2085.816704922965
 24
288.0972066642221
 34
0.0
 50
90.0
100
AcDbRotatedDimension
  0
DIMENSION
  5
263
102
{ACAD_XDICTIONARY
360
270
102
}
102
{ACAD_REACTORS
330
27A
102
}
330
1F
100
AcDbEntity
  8
koty
100
AcDbDimension
  2
*D3
 10
2266.907541519384
 20
865.5972066642224
 30
0.0
 11
2250.657541519384
 21
568.0972066642225
 31
0.0
 70
    32
 71
     5
 42
595.0000000000004
  3
ISO-25
100
AcDbAlignedDimension
 13
2085.816704922965
 23
270.597206664222
 33
0.0
 14
2085.816704922965
 24
865.5972066642224
 34
0.0
 50
90.0
100
AcDbRotatedDimension
  0
DIMENSION
  5
27B
102
{ACAD_XDICTIONARY
360
288
102
}
102
{ACAD_REACTORS
330
292
102
}
330
1F
100
AcDbEntity
  8
koty
100
AcDbDimension
  2
*D4
 10
2085.816704922965
 20
198.1267813389445
 30
0.0
 11
1898.316704922965
 21
214.3767813389445
 31
0.0
 70
    32
 71
     5
 42
374.9999999999993
  3
ISO-25
100
AcDbAlignedDimension
 13
1710.816704922965
 23
270.5972066642218
 33
0.0
 14
2085.816704922965
 24
270.597206664222
 34
0.0
100
AcDbRotatedDimension
  0
DIMENSION
  5
293
102
{ACAD_XDICTIONARY
360
29F
102
}
102
{ACAD_REACTORS
330
2A8
102
}
330
1F
100
AcDbEntity
  8
koty
100
AcDbDimension
  2
*D5
 10
1343.188421159862
 20
810.5843197238648
 30
0.0
 11
1464.126841052945
 21
810.5843197238648
 31
0.0
 70
   163
 71
     5
 42
12.0
  3
ISO-25
100
AcDbDiametricDimension
 15
1355.188421159862
 25
810.5843197238648
 35
0.0
 40
0.0
1001
ACAD
1000
DSTYLE
1002
{
1070
   288
1070
     1
1002
}
  0
LEADER
  5
2A9
102
{ACAD_XDICTIONARY
360
2AB
102
}
102
{ACAD_REACTORS
330
2AC
102
}
330
1F
100
AcDbEntity
  8
koty
100
AcDbLeader
  3
ISO-25
 73
     0
 40
20.0
 41
46.66666666666666
 76
     3
 10
1457.675534219505
 20
428.0972066642216
 30
0.0
 10
1512.596926885704
 20
462.1643505544102
 30
0.0
 10
1563.155798628131
 20
462.1643505544102
 30
0.0
340
2AA
213
0.0
223
-10.0
233
0.0
1001
ACAD
1000
DSTYLE
1002
{
1070
   147
1040
0.625
1070
    77
1070
     0
1002
}
  0
MTEXT
  5
2AA
102
{ACAD_REACTORS
330
2A9
102
}
330
1F
100
AcDbEntity
  8
koty
100
AcDbMText
 10
1569.405798628132
 20
472.1643505544102
 30
0.0
 40
20.0
 41
0.0
 71
     1
 72
     1
  1
12x
 73
     1
 44
1.0
  0
TEXT
  5
2AD
330
1F
100
AcDbEntity
  8
popis
100
AcDbText
 10
1078.970154600765
 20
952.597513223738
 30
0.0
 40
25.0
  1
TCBx2/500 - středotlaký axiální ventilátor potrubní
100
AcDbText
  0
ENDSEC
  0
SECTION
  2
OBJECTS
  0
DICTIONARY
  5
C
330
0
100
AcDbDictionary
281
     1
  3
ACAD_GROUP
350
D
  3
ACAD_LAYOUT
350
1A
  3
ACAD_MLINESTYLE
350
17
  3
ACAD_PLOTSETTINGS
350
19
  3
ACAD_PLOTSTYLENAME
350
E
  3
AcDbVariableDictionary
350
2E
  0
DICTIONARY
  5
240
330
233
100
AcDbDictionary
280
     1
281
     1
  3
ACAD_DIMASSOC
360
24A
  0
DICTIONARY
  5
258
330
24B
100
AcDbDictionary
280
     1
281
     1
  3
ACAD_DIMASSOC
360
262
  0
DICTIONARY
  5
270
330
263
100
AcDbDictionary
280
     1
281
     1
  3
ACAD_DIMASSOC
360
27A
  0
DICTIONARY
  5
288
330
27B
100
AcDbDictionary
280
     1
281
     1
  3
ACAD_DIMASSOC
360
292
  0
DICTIONARY
  5
29F
330
293
100
AcDbDictionary
280
     1
281
     1
  3
ACAD_DIMASSOC
360
2A8
  0
DICTIONARY
  5
2AB
330
2A9
100
AcDbDictionary
280
     1
281
     1
  3
ACAD_DIMASSOC
360
2AC
  0
DICTIONARY
  5
D
102
{ACAD_REACTORS
330
C
102
}
330
C
100
AcDbDictionary
281
     1
  0
DICTIONARY
  5
1A
102
{ACAD_REACTORS
330
C
102
}
330
C
100
AcDbDictionary
281
     1
  3
Model
350
22
  3
Rozvržení1
350
1E
  3
Rozvržení2
350
26
  0
DICTIONARY
  5
17
102
{ACAD_REACTORS
330
C
102
}
330
C
100
AcDbDictionary
281
     1
  3
Standard
350
18
  0
DICTIONARY
  5
19
102
{ACAD_REACTORS
330
C
102
}
330
C
100
AcDbDictionary
281
     1
  0
ACDBDICTIONARYWDFLT
  5
E
102
{ACAD_REACTORS
330
C
102
}
330
C
100
AcDbDictionary
281
     1
  3
Normal
350
F
100
AcDbDictionaryWithDefault
340
F
  0
DICTIONARY
  5
2E
102
{ACAD_REACTORS
330
C
102
}
330
C
100
AcDbDictionary
281
     1
  3
DIMASSOC
350
30
  3
HIDETEXT
350
2F
  0
DIMASSOC
  5
24A
102
{ACAD_REACTORS
330
240
102
}
330
240
100
AcDbDimAssoc
330
233
 90
        3
 70
     0
 71
     0
  1
AcDbOsnapPointRef
 72
    13
331
219
 73
     2
 91
        0
 40
0.0
 10
2085.816704922965
 20
318.0972066642221
 30
0.0
 75
     0
  1
AcDbOsnapPointRef
 72
    13
331
220
 73
     2
 91
        0
 40
0.0
 10
2085.816704922965
 20
818.0972066642222
 30
0.0
 75
     0
  0
DIMASSOC
  5
262
102
{ACAD_REACTORS
330
258
102
}
330
258
100
AcDbDimAssoc
330
24B
 90
        3
 70
     0
 71
     0
  1
AcDbOsnapPointRef
 72
    13
331
21E
 73
     2
 91
        0
 40
0.0
 10
2085.816704922965
 20
848.0972066642223
 30
0.0
 75
     0
  1
AcDbOsnapPointRef
 72
    13
331
21B
 73
     2
 91
        0
 40
0.0
 10
2085.816704922965
 20
288.0972066642221
 30
0.0
 75
     0
  0
DIMASSOC
  5
27A
102
{ACAD_REACTORS
330
270
102
}
330
270
100
AcDbDimAssoc
330
263
 90
        3
 70
     0
 71
     0
  1
AcDbOsnapPointRef
 72
    13
331
217
 73
     2
 91
        0
 40
0.0
 10
2085.816704922965
 20
270.597206664222
 30
0.0
 75
     0
  1
AcDbOsnapPointRef
 72
    13
331
223
 73
     2
 91
        0
 40
0.0
 10
2085.816704922965
 20
865.5972066642224
 30
0.0
 75
     0
  0
DIMASSOC
  5
292
102
{ACAD_REACTORS
330
288
102
}
330
288
100
AcDbDimAssoc
330
27B
 90
        3
 70
     0
 71
     0
  1
AcDbOsnapPointRef
 72
    13
331
1CE
 73
     2
 91
        0
 40
0.0
 10
1710.816704922965
 20
270.5972066642218
 30
0.0
 75
     0
  1
AcDbOsnapPointRef
 72
    13
331
217
 73
     2
 91
        0
 40
0.0
 10
2085.816704922965
 20
270.597206664222
 30
0.0
 75
     0
  0
DIMASSOC
  5
2A8
102
{ACAD_REACTORS
330
29F
102
}
330
29F
100
AcDbDimAssoc
330
293
 90
        2
 70
     0
 71
     0
  1
AcDbOsnapPointRef
 72
     3
331
181
 73
     2
 91
        0
 40
0.0
 10
0.0
 20
0.0
 30
0.0
 75
     0
  0
DIMASSOC
  5
2AC
102
{ACAD_REACTORS
330
2AB
102
}
330
2AB
100
AcDbDimAssoc
330
2A9
 90
        1
 70
     0
 71
     0
  1
AcDbOsnapPointRef
 72
     5
331
17E
 73
     2
 91
        0
 40
0.0
 10
1457.675534219505
 20
428.0972066642216
 30
0.0
 75
     0
  0
LAYOUT
  5
22
102
{ACAD_REACTORS
330
1A
102
}
330
1A
100
AcDbPlotSettings
  1

  2
D:\AutoCAD 2002Cz\plotters\PublishToWeb DWF.pc3
  4

  6

 40
0.0
 41
0.0
 42
0.0
 43
0.0
 44
0.0
 45
0.0
 46
0.0
 47
0.0
 48
0.0
 49
0.0
140
0.0
141
0.0
142
1.0
143
1.0
 70
  1712
 72
     0
 73
     0
 74
     0
  7

 75
     0
147
1.0
148
0.0
149
0.0
100
AcDbLayout
  1
Model
 70
     1
 71
     0
 10
0.0
 20
0.0
 11
12.0
 21
9.0
 12
0.0
 22
0.0
 32
0.0
 14
0.0
 24
0.0
 34
0.0
 15
0.0
 25
0.0
 35
0.0
146
0.0
 13
0.0
 23
0.0
 33
0.0
 16
1.0
 26
0.0
 36
0.0
 17
0.0
 27
1.0
 37
0.0
 76
     0
330
1F
  0
LAYOUT
  5
1E
102
{ACAD_REACTORS
330
1A
102
}
330
1A
100
AcDbPlotSettings
  1

  2
D:\AutoCAD 2002Cz\plotters\PublishToWeb DWF.pc3
  4

  6

 40
0.0
 41
0.0
 42
0.0
 43
0.0
 44
0.0
 45
0.0
 46
0.0
 47
0.0
 48
0.0
 49
0.0
140
0.0
141
0.0
142
1.0
143
1.0
 70
   688
 72
     0
 73
     0
 74
     5
  7

 75
    16
147
1.0
148
0.0
149
0.0
100
AcDbLayout
  1
Rozvržení1
 70
     1
 71
     1
 10
0.0
 20
0.0
 11
420.0
 21
297.0
 12
0.0
 22
0.0
 32
0.0
 14
1.000000000000000E+20
 24
1.000000000000000E+20
 34
1.000000000000000E+20
 15
-1.000000000000000E+20
 25
-1.000000000000000E+20
 35
-1.000000000000000E+20
146
0.0
 13
0.0
 23
0.0
 33
0.0
 16
1.0
 26
0.0
 36
0.0
 17
0.0
 27
1.0
 37
0.0
 76
     0
330
1B
  0
LAYOUT
  5
26
102
{ACAD_REACTORS
330
1A
102
}
330
1A
100
AcDbPlotSettings
  1

  2
D:\AutoCAD 2002Cz\plotters\PublishToWeb DWF.pc3
  4

  6

 40
0.0
 41
0.0
 42
0.0
 43
0.0
 44
0.0
 45
0.0
 46
0.0
 47
0.0
 48
0.0
 49
0.0
140
0.0
141
0.0
142
1.0
143
1.0
 70
   688
 72
     0
 73
     0
 74
     5
  7

 75
    16
147
1.0
148
0.0
149
0.0
100
AcDbLayout
  1
Rozvržení2
 70
     1
 71
     2
 10
0.0
 20
0.0
 11
12.0
 21
9.0
 12
0.0
 22
0.0
 32
0.0
 14
0.0
 24
0.0
 34
0.0
 15
0.0
 25
0.0
 35
0.0
146
0.0
 13
0.0
 23
0.0
 33
0.0
 16
1.0
 26
0.0
 36
0.0
 17
0.0
 27
1.0
 37
0.0
 76
     0
330
23
  0
MLINESTYLE
  5
18
102
{ACAD_REACTORS
330
17
102
}
330
17
100
AcDbMlineStyle
  2
STANDARD
 70
     0
  3

 62
   256
 51
90.0
 52
90.0
 71
     2
 49
0.5
 62
   256
  6
BYLAYER
 49
-0.5
 62
   256
  6
BYLAYER
  0
ACDBPLACEHOLDER
  5
F
102
{ACAD_REACTORS
330
E
102
}
330
E
  0
DICTIONARYVAR
  5
30
102
{ACAD_REACTORS
330
2E
102
}
330
2E
100
DictionaryVariables
280
     0
  1
2
  0
DICTIONARYVAR
  5
2F
102
{ACAD_REACTORS
330
2E
102
}
330
2E
100
DictionaryVariables
280
     0
  1
1
  0
ENDSEC
  0
EOF
